(Classical / Canzonettas and Madrigali) Marini - Allegrezza del nuovo maggio (Emanuela Galli - Ensemble Galilei, Paul Beier) - 1996, APE (image+.cue) lossless


 

[Цитировать]

Biagio Marini (1597-1665) - Allegrezza del nuovo maggio
Жанр: Classical / Canzonettas and Madrigali
Страна-производитель диска: Italy
Год издания диска: 1996
Издатель (лейбл): Stradivarius
Номер по каталогу: STR 3344
Дата записи: 1996
Аудиокодек: APE
Тип рипа: image+.cue
Битрейт аудио: lossless
Продолжительность: 72'14
Источник: собственный рип
Треклист:
1. Entrata, Zarabanda, Corrente, Balletto Allemano, Retirata - 6:16
2. Primavera - Allegrezza Del Nuovo Maggio - 3:03
3. Primavera - Sona Per Due Violini Dolcemente - 5:04
4. Primavera - Le Rugiade - 4:55
5. Estate - Balletto, Entrata, Balletto In Quattro Parti, Corrente - 4:25
6. Estate - Invita La Sua Donna Alle Delitie Della Campagna - 4:39
7. Estate - Sinfonia, Sonata Seconda Per Due Violina - 4:38
8. Autunno - Balletto, Entrata, Balletto In Quattro Parti, Corrente - 6:20
9. Autonno - Invito Allamoroso Riposo - 2:10
10. Autonno - La Luna - 4:27
11. Autonno - Sonata Prima Per Due Violini E Basso, Sopra Fuggi Dolente - 3:24
12. Inverno - Balletto, Entrata, Balletto, Corrente, Zarabanda, Retirata - 6:40
13. Inverno - Balletto, Entrata, Balletto, Corrente, Zarabanda, Retirata - 6:44
14. Inverno - Il Verno - 6:02
15. Epilogo - Passacalio - 3:18
Исполнители:
Biagio Marini - Allegrezza del nuovo maggio
Emanuela Galli, soprano
Ensemble Galilei,
Paul Beier

Лог создания рипа

Exact Audio Copy V1.0 beta 3 from 29. August 2011
EAC extraction logfile from 5. April 2014, 13:53
Marini / Allegrezza del Nuovo Maggio, Beier 1994
Used drive : TSSTcorpCDDVDW SE-208AB Adapter: 1 ID: 0
Read mode : Secure
Utilize accurate stream : Yes
Defeat audio cache : Yes
Make use of C2 pointers : No
Read offset correction : 6
Overread into Lead-In and Lead-Out : No
Fill up missing offset samples with silence : Yes
Delete leading and trailing silent blocks : No
Null samples used in CRC calculations : Yes
Used interface : Native Win32 interface for Win NT & 2000
Used output format : Monkey's Audio Lossless Encoder
Selected bitrate : High Lossless Compression
Quality : High
Add ID3 tag : Yes
Command line compressor : C:\Program Files (x86)\Monkey's Audio\MAC.exe
Additional command line options : %dest% -t "Artist=%artist%" -t "Title=%title%" -t "Album=%albumtitle%" -t "Year=%year%" -t "Track=%tracknr%" -t "Genre=%genre%" mac.exe %source% %dest% -c3000 -v
TOC of the extracted CD
Track | Start | Length | Start sector | End sector
---------------------------------------------------------
1 | 0:00.00 | 6:16.42 | 0 | 28241
2 | 6:16.42 | 3:03.53 | 28242 | 42019
3 | 9:20.20 | 5:04.02 | 42020 | 64821
4 | 14:24.22 | 4:55.53 | 64822 | 86999
5 | 19:20.00 | 4:25.17 | 87000 | 106891
6 | 23:45.17 | 4:39.35 | 106892 | 127851
7 | 28:24.52 | 4:38.05 | 127852 | 148706
8 | 33:02.57 | 6:20.23 | 148707 | 177229
9 | 39:23.05 | 2:10.00 | 177230 | 186979
10 | 41:33.05 | 4:27.65 | 186980 | 207069
11 | 46:00.70 | 3:24.52 | 207070 | 222421
12 | 49:25.47 | 6:40.68 | 222422 | 252489
13 | 56:06.40 | 6:44.22 | 252490 | 282811
14 | 62:50.62 | 6:02.40 | 282812 | 310001
15 | 68:53.27 | 3:18.53 | 310002 | 324904
Range status and errors
Selected range
Filename E:\Foobar-EAC\Marini - Allegrezza del Nuovo Maggio, Beier 1994.wav
Peak level 95.2 %
Extraction speed 2.1 X
Range quality 100.0 %
Test CRC 1EEC58BC
Copy CRC 1EEC58BC
Copy OK
No errors occurred
AccurateRip summary
Track 1 accurately ripped (confidence 1) [0343CF73] (AR v1)
Track 2 accurately ripped (confidence 1) [38358897] (AR v1)
Track 3 accurately ripped (confidence 1) [6033AC11] (AR v1)
Track 4 accurately ripped (confidence 1) [88496E76] (AR v1)
Track 5 accurately ripped (confidence 1) [24968A13] (AR v1)
Track 6 accurately ripped (confidence 1) [A432255C] (AR v1)
Track 7 accurately ripped (confidence 1) [2B10B5DD] (AR v1)
Track 8 accurately ripped (confidence 1) [32C5F742] (AR v1)
Track 9 accurately ripped (confidence 1) [45D83874] (AR v1)
Track 10 accurately ripped (confidence 1) [7DBA2FFC] (AR v1)
Track 11 accurately ripped (confidence 1) [C6FEEE95] (AR v1)
Track 12 accurately ripped (confidence 1) [59ECD7D9] (AR v1)
Track 13 accurately ripped (confidence 1) [9D2C554B] (AR v1)
Track 14 accurately ripped (confidence 1) [419C8918] (AR v1)
Track 15 accurately ripped (confidence 1) [7D1A0089] (AR v1)
All tracks accurately ripped
End of status report
---- CUETools DB Plugin V2.1.3
[CTDB TOCID: xM0t3hskouzphbhSXOqfhUWDStc-] found, Submit result: xM0t3hskouzphbhSXOqfhUWDStc- has been confirmed
[8e235cea] (1/1) Accurately ripped
==== Log checksum AE35C76270941EAA9BBEC9A981E898B2E2756BE085CA7C853535DA0598B9B779 ====

Содержание индексной карты (.CUE)

REM GENRE "Canzonettes and Madrigals"
REM DATE 1994
REM DISCID F210EC0F
REM COMMENT "ExactAudioCopy v1.0b3"
CATALOG 0000000000000
PERFORMER "Marini"
TITLE "Allegrezza del Nuovo Maggio, Beier 1994"
FILE "Marini - Allegrezza del Nuovo Maggio, Beier 1994.ape" WAVE
TRACK 01 AUDIO
TITLE "Primavera - Balletto: Entrata, Zarabanda, Corrente, Balletto Allemano, Retirata"
PERFORMER "Marini"
INDEX 01 00:00:00
TRACK 02 AUDIO
TITLE "Primavera - Allegrezza Del Nuovo Maggio"
PERFORMER "Marini"
INDEX 01 06:16:42
TRACK 03 AUDIO
TITLE "Primavera - Sonata per 2 violini ''Dolcemente''"
PERFORMER "Marini"
INDEX 01 09:20:20
TRACK 04 AUDIO
TITLE "Primavera - Le Rugiade"
PERFORMER "Marini"
INDEX 01 14:24:22
TRACK 05 AUDIO
TITLE "Estate - Balletto: Entrata, Balletto in 4 parti, Corrente"
PERFORMER "Marini"
INDEX 01 19:20:00
TRACK 06 AUDIO
TITLE "Estate - Invita la sua donna alle delitie della Campagna"
PERFORMER "Marini"
INDEX 01 23:45:17
TRACK 07 AUDIO
TITLE "Estate - Sinfonia, Sonata Seconda per Due Violini"
PERFORMER "Marini"
INDEX 01 28:24:52
TRACK 08 AUDIO
TITLE "Autunno - Balletto: Entrata, Balletto, Gagliarda, Corrente, Retirata"
PERFORMER "Marini"
INDEX 01 33:02:57
TRACK 09 AUDIO
TITLE "Autunno - Invito all'amoroso riposo"
PERFORMER "Marini"
INDEX 01 39:23:05
TRACK 10 AUDIO
TITLE "Autunno - La Luna"
PERFORMER "Marini"
INDEX 01 41:33:05
TRACK 11 AUDIO
TITLE "Autunno - Sonata Prima per Due Violini e Basso, sopra ''Fuggi Dolente''"
PERFORMER "Marini"
INDEX 01 46:00:70
TRACK 12 AUDIO
TITLE "Inverno - Balletto: Entrata, Balletto Terzo, Corrente, Zarabanda, Retirata"
PERFORMER "Marini"
INDEX 01 49:25:47
TRACK 13 AUDIO
TITLE "Inverno - Il Verno"
PERFORMER "Marini"
INDEX 01 56:06:40
TRACK 14 AUDIO
TITLE "Inverno - Natività di Christo"
PERFORMER "Marini"
INDEX 01 62:50:62
TRACK 15 AUDIO
TITLE "Epilogo - Passacalio"
PERFORMER "Marini"
INDEX 01 68:53:27



Показать сообщения:    

Текущее время: 11-Дек 13:02

Часовой пояс: UTC + 3


Вы не можете начинать темы
Вы не можете отвечать на сообщения
Вы не можете редактировать свои сообщения
Вы не можете удалять свои сообщения
Вы не можете голосовать в опросах
Вы не можете прикреплять файлы к сообщениям
Вы не можете скачивать файлы