(Classical) Gyorgy Ligeti - Violin Concerto; Lontano; Atmospheres; San Francisco Polyphony - Benjamin Schmid, Finnish Radio Symphony Orchestra, Hannu Lintu - 2013, FLAC (image+.cue) lossless


Статистика раздачи [Обновить пиров]
Размер:  260 MB   |    Зарегистрирован:  8 месяцев 23 дня   |    Скачан:  1 раз

Полного источника не было: 4 месяца 9 дней

Личеров:  3  [  0 KB/s  ]   Подробная статистика пиров
 
   
 
 
 

[Цитировать]

György Ligeti - Violin Concerto; Lontano; Atmosphères; San Francisco Polyphony - Benjamin Schmid, Finnish Radio Symphony Orchestra, Hannu Lintu
Жанр: Classical
Страна-производитель диска: Finland
Год издания диска: 2013
Издатель (лейбл): Ondine
Номер по каталогу: ODE 1213-2
Дата записи: 2012, 2013
Аудиокодек: FLAC
Тип рипа: image+.cue
Битрейт аудио: lossless
Продолжительность: 68:22
Источник: собственный рип
Наличие сканов в содержимом раздачи: да
Треклист:
György Ligeti (1923-2006)
[1] Lontano (1967)
[2]-[6] Violin Concerto (1989-1993)
[7] Atmosphères (1961)
[8] San Francisco Polyphony (1974)
Исполнители:
Benjamin Schmid violin
Finnish Radio Symphony Orchestra
Hannu Lintu
conductor

Лог создания рипа

Exact Audio Copy V1.0 beta 3 from 29. August 2011
EAC extraction logfile from 6. April 2014, 14:53
Finnish Radio SO, Hannu Lintu / Ligeti - Violin Concerto; Lontano; Atmospheres; San Francisco Polyphony
Used drive : HL-DT-STDVDRAM GSA-4083N Adapter: 1 ID: 0
Read mode : Secure
Utilize accurate stream : Yes
Defeat audio cache : Yes
Make use of C2 pointers : No
Read offset correction : 667
Overread into Lead-In and Lead-Out : No
Fill up missing offset samples with silence : Yes
Delete leading and trailing silent blocks : No
Null samples used in CRC calculations : Yes
Used interface : Native Win32 interface for Win NT & 2000
Used output format : User Defined Encoder
Selected bitrate : 896 kBit/s
Quality : High
Add ID3 tag : No
Command line compressor : C:\Program Files\Exact Audio Copy\Flac\flac.exe
Additional command line options : -V -8 %source%
TOC of the extracted CD
Track | Start | Length | Start sector | End sector
---------------------------------------------------------
1 | 0:00.00 | 15:52.27 | 0 | 71426
2 | 15:52.27 | 4:11.72 | 71427 | 90323
3 | 20:04.24 | 8:17.10 | 90324 | 127608
4 | 28:21.34 | 2:31.64 | 127609 | 138997
5 | 30:53.23 | 6:49.61 | 138998 | 169733
6 | 37:43.09 | 6:45.65 | 169734 | 200173
7 | 44:28.74 | 10:09.25 | 200174 | 245873
8 | 54:38.24 | 13:41.66 | 245874 | 307514
Range status and errors
Selected range
Filename J:\New Music\Ligeti - Violin Concerto; Lontano; Atmospheres; San Francisco Polyphony\Ligeti - Violin Concerto; Lontano; Atmospheres; San Francisco Polyphony.wav
Peak level 100.0 %
Extraction speed 2.7 X
Range quality 99.9 %
Test CRC 66B7351A
Copy CRC 66B7351A
Copy OK
No errors occurred
AccurateRip summary
Track 1 accurately ripped (confidence 1) [9656D1D0] (AR v1)
Track 2 accurately ripped (confidence 1) [4F57FAC5] (AR v1)
Track 3 accurately ripped (confidence 1) [14D66896] (AR v1)
Track 4 accurately ripped (confidence 1) [EAC96BF6] (AR v1)
Track 5 accurately ripped (confidence 1) [BE24A25B] (AR v1)
Track 6 accurately ripped (confidence 1) [7EABA603] (AR v1)
Track 7 accurately ripped (confidence 1) [D9124448] (AR v1)
Track 8 accurately ripped (confidence 1) [4F611446] (AR v1)
All tracks accurately ripped
End of status report
==== Log checksum 370AE6244A931C4DF5B786ACCC0EF4AAE1CB2554F896A240FA7C96C7A436351C ====
[teatrix.ru].t18884.torrent 
Торрент: Зарегистрирован [ 2016-03-18 12:16 ] · 8C51ACBFDAA43AD33485CF62DA3A906A515F414B

Скачать .torrent

Скачать

22 KB

Статус: проверено
Скачан: 1 раз
Размер: 260 MB
terms.php



Быстрый ответ

Имя:

      
Для отправки сообщений необходимо включить JavaScript
Показать сообщения:    

Текущее время: 11-Дек 11:07

Часовой пояс: UTC + 3


Вы можете начинать темы
Вы можете отвечать на сообщения
Вы не можете редактировать свои сообщения
Вы не можете удалять свои сообщения
Вы не можете голосовать в опросах
Вы не можете прикреплять файлы к сообщениям
Вы можете скачивать файлы