(Classical) Шостакович - Струнные квартеты/Shostakovich - String Quartets 2, 3, 7, 8, 12 Opp. 68, 73, 108, 110, 133 (Borodin String Quartet/Квартет им. Бородина - Копельман,Абраменков,Шебалин,Берлинский) - 1991,1993/1999, FLAC (image+.cue) lossless


 

[Цитировать]

Д.Д.Шостакович - Струнные квартеты №№ 2, 3, 7, 8, 12 - Квартет им. Бородина
Жанр: Classical/Chamber/String quartet
Страна-производитель диска: EU
Год издания диска: 1991,1993/1999
Издатель (лейбл): Virgin Classics
Номер по каталогу: 7243 5 61630 2 7 (7243 5 61631 2 6, 7243 5 61632 2 5)
Дата записи: 1990
Аудиокодек: FLAC
Тип рипа: image+.cue
Битрейт аудио: lossless
Продолжительность: 63:07 + 67:16
Источник: собственный рип
Наличие сканов в содержимом раздачи: да
Треклист:
Дмитрий Шостакович / Dmitri Shostakovich (1906-1975)
CD1:
String Quartet no.2 in A major, op.68
01. 1. Overture. Moderato con moto [0:08:01.24]
02. 2. Recitative and Romance. Adagio [0:11:48.27]
03. 3. Waltz. Allegro [0:05:31.15]
04. 4. Theme and Variations. Adagio - Moderato con moto [0:10:45.43]
String Quartet no.12 in D-flat major, op.133
05. 1. Moderato [0:06:50.63]
06. 2. Allegretto [0:20:10.11]
CD2:
String Quartet no.8 in C minor, op.110
01. 1. Largo [0:04:59.46]
02. 2. Allegro molto [0:02:51.35]
03. 3. Allegretto [0:04:12.70]
04. 4. Largo [0:05:45.07]
05. 5. Largo [0:03:56.47]
String Quartet no.7 in F-sharp minor, op.108
06. 1. Allegretto [0:03:19.50]
07. 2. Lento [0:03:30.13]
08. 3. Allegro [0:06:03.00]
String Quartet no.3 in F major, op.73
09. 1. Allegretto [0:06:37.00]
10. 2. Moderato con moto [0:05:22.00]
11. 3. Allegro non troppo [0:04:17.25]
12. 4. Adagio [0:05:49.02]
13. 5. Moderato [0:10:30.54]
Исполнители:
Квартет им. Бородина / Borodin String Quartet
Михаил Копельман / Mikhail Kopelman, violin
Андрей Абраменков / Andrei Abramenkov, violin
Дмитрий Шебалин / Dmitri Shebalin, viola
Валентин Берлинский / Valentin Berlinsky, cello

Лог создания рипаCD1

Exact Audio Copy V1.0 beta 3 from 29. August 2011
Отчёт EAC об извлечении, выполненном 9. июня 2014, 19:51
Borodin String Quartet / Shostakovich: String Quartets Nos. 2, 3, 7, 8 & 12 [Disc 1]
Дисковод: HL-DT-STDVDRAM GU71N Adapter: 2 ID: 0
Режим чтения : Достоверность
Использование точного потока : Да
Отключение кэша аудио : Да
Использование указателей C2 : Нет
Коррекция смещения при чтении : 6
Способность читать области Lead-in и Lead-out : Нет
Заполнение пропущенных сэмплов тишиной : Да
Удаление блоков с тишиной в начале и конце : Нет
При вычислениях CRC использовались нулевые сэмплы : Да
Интерфейс : Встроенный Win32-интерфейс для Win NT/2000
Выходной формат : Пользовательский кодировщик
Выбранный битрейт : 1024 kBit/s
Качество : Высокий
Добавление ID3-тега : Нет
Утилита сжатия : C:\Program Files (x86)\Exact Audio Copy\Flac\flac.exe
Дополнительные параметры : -8 -V -T "ALBUMARTIST=%albumartist%" -T "ALBUM=%albumtitle%" -T "DATE=%year%" -T "TRACKTOTAL=%numtracks%" -T "GENRE=%genre%" -T "COMMENT=%comment%" -T "PERFORMER=%albuminterpret%" -T "COMPOSER=%composer%" %source% -o %dest%
TOC извлечённого CD
Трек | Старт | Длительность | Начальный сектор | Конечный сектор
---------------------------------------------------------------------
1 | 0:00.32 | 8:01.24 | 32 | 36130
2 | 8:01.56 | 11:48.27 | 36131 | 89257
3 | 19:50.08 | 5:31.15 | 89258 | 114097
4 | 25:21.23 | 10:45.43 | 114098 | 162515
5 | 36:06.66 | 6:50.63 | 162516 | 193328
6 | 42:57.54 | 20:10.11 | 193329 | 284089
Характеристики диапазона извлечения и сообщения об ошибках
Выбранный диапазон
Имя файла H:\Rips\Shostakovich - String Quartets Nos. 2, 3, 7, 8 & 12 - Borodin String Quartet (Virgin Classics)\Shostakovich - String Quartets Nos. 2, 3, 7, 8 & 12 [Disc 1].wav
Пиковый уровень 97.7 %
Скорость извлечения 2.1 X
Качество диапазона 100.0 %
CRC теста 93FF00CC
CRC копии 93FF00CC
Копирование... OK
Ошибок не произошло
AccurateRip: сводка
Трек 1 : извлечено точно (доверие 15) [77A9BDBB] (AR v2)
Трек 2 : извлечено точно (доверие 15) [1215E56A] (AR v2)
Трек 3 : извлечено точно (доверие 15) [58341D33] (AR v2)
Трек 4 : извлечено точно (доверие 15) [ABBDC9AA] (AR v2)
Трек 5 : извлечено точно (доверие 15) [7C471695] (AR v2)
Трек 6 : извлечено точно (доверие 15) [B2F84C52] (AR v2)
Все треки извлечены точно
Конец отчёта
==== Контрольная сумма отчёта 6BA77203AD4F2DFBDF1CF081A9E50E2DC73A632BDB6A9DAE5FFF49A4E0DCC93E ====

CD2

Exact Audio Copy V1.0 beta 3 from 29. August 2011
Отчёт EAC об извлечении, выполненном 9. июня 2014, 21:14
Borodin String Quartet / Shostakovich: String Quartets Nos. 2, 3, 7, 8 & 12 [Disc 2]
Дисковод: HL-DT-STDVDRAM GU71N Adapter: 2 ID: 0
Режим чтения : Достоверность
Использование точного потока : Да
Отключение кэша аудио : Да
Использование указателей C2 : Нет
Коррекция смещения при чтении : 6
Способность читать области Lead-in и Lead-out : Нет
Заполнение пропущенных сэмплов тишиной : Да
Удаление блоков с тишиной в начале и конце : Нет
При вычислениях CRC использовались нулевые сэмплы : Да
Интерфейс : Встроенный Win32-интерфейс для Win NT/2000
Выходной формат : Пользовательский кодировщик
Выбранный битрейт : 1024 kBit/s
Качество : Высокий
Добавление ID3-тега : Нет
Утилита сжатия : C:\Program Files (x86)\Exact Audio Copy\Flac\flac.exe
Дополнительные параметры : -8 -V -T "ALBUMARTIST=%albumartist%" -T "ALBUM=%albumtitle%" -T "DATE=%year%" -T "TRACKTOTAL=%numtracks%" -T "GENRE=%genre%" -T "COMMENT=%comment%" -T "PERFORMER=%albuminterpret%" -T "COMPOSER=%composer%" %source% -o %dest%
TOC извлечённого CD
Трек | Старт | Длительность | Начальный сектор | Конечный сектор
---------------------------------------------------------------------
1 | 0:00.32 | 4:59.46 | 32 | 22502
2 | 5:00.03 | 2:51.35 | 22503 | 35362
3 | 7:51.38 | 4:12.70 | 35363 | 54332
4 | 12:04.33 | 5:45.07 | 54333 | 80214
5 | 17:49.40 | 3:56.47 | 80215 | 97961
6 | 21:46.12 | 3:19.50 | 97962 | 112936
7 | 25:05.62 | 3:30.13 | 112937 | 128699
8 | 28:36.00 | 6:03.00 | 128700 | 155924
9 | 34:39.00 | 6:37.00 | 155925 | 185699
10 | 41:16.00 | 5:22.00 | 185700 | 209849
11 | 46:38.00 | 4:17.25 | 209850 | 229149
12 | 50:55.25 | 5:49.02 | 229150 | 255326
13 | 56:44.27 | 10:30.54 | 255327 | 302630
Характеристики диапазона извлечения и сообщения об ошибках
Выбранный диапазон
Имя файла H:\Rips\Shostakovich - String Quartets Nos. 2, 3, 7, 8 & 12 - Borodin String Quartet (Virgin Classics)\Shostakovich - String Quartets Nos. 2, 3, 7, 8 & 12 [Disc 2].wav
Пиковый уровень 100.0 %
Скорость извлечения 2.1 X
Качество диапазона 100.0 %
CRC теста E57A8D6D
CRC копии E57A8D6D
Копирование... OK
Ошибок не произошло
AccurateRip: сводка
Трек 1 : извлечено точно (доверие 15) [B2973AA3] (AR v2)
Трек 2 : извлечено точно (доверие 15) [3B908ACC] (AR v2)
Трек 3 : извлечено точно (доверие 15) [67EBF907] (AR v2)
Трек 4 : извлечено точно (доверие 15) [B551FC51] (AR v2)
Трек 5 : извлечено точно (доверие 15) [F99828C9] (AR v2)
Трек 6 : извлечено точно (доверие 15) [3A0A045F] (AR v2)
Трек 7 : извлечено точно (доверие 15) [0ADBE153] (AR v2)
Трек 8 : извлечено точно (доверие 15) [B37FBBF1] (AR v2)
Трек 9 : извлечено точно (доверие 15) [593394DB] (AR v2)
Трек 10 : извлечено точно (доверие 14) [46CA4EF1] (AR v2)
Трек 11 : извлечено точно (доверие 14) [321F8134] (AR v2)
Трек 12 : извлечено точно (доверие 14) [8E420627] (AR v2)
Трек 13 : извлечено точно (доверие 15) [8D50D6F6] (AR v2)
Все треки извлечены точно
Конец отчёта
==== Контрольная сумма отчёта 3CF0132B0DE5E664ADD51468771F24C556479CC853F5D91DA397920F54BE2D77 ====

Содержание индексной карты (.CUE)CD1

REM GENRE "Chamber Music"
REM DATE 1999
REM DISCID 510ECB06
REM COMMENT "ExactAudioCopy v1.0b3"
PERFORMER "Borodin String Quartet"
TITLE "Shostakovich: String Quartets Nos. 2, 3, 7, 8 & 12 [Disc 1]"
FILE "Shostakovich - String Quartets Nos. 2, 3, 7, 8 & 12 [Disc 1].flac" WAVE
TRACK 01 AUDIO
TITLE "String Quartet no.2 in A major, op.68 - 1. Overture. Moderato con moto"
PERFORMER "Borodin String Quartet"
INDEX 00 00:00:00
INDEX 01 00:00:32
TRACK 02 AUDIO
TITLE "String Quartet no.2 in A major, op.68 - 2. Recitative and Romance. Adagio"
PERFORMER "Borodin String Quartet"
INDEX 01 08:01:56
TRACK 03 AUDIO
TITLE "String Quartet no.2 in A major, op.68 - 3. Waltz. Allegro"
PERFORMER "Borodin String Quartet"
INDEX 01 19:50:08
TRACK 04 AUDIO
TITLE "String Quartet no.2 in A major, op.68 - 4. Theme and Variations. Adagio - Moderato con moto"
PERFORMER "Borodin String Quartet"
INDEX 01 25:21:23
TRACK 05 AUDIO
TITLE "String Quartet no.12 in D-flat major, op.133 - 1. Moderato"
PERFORMER "Borodin String Quartet"
INDEX 00 35:56:50
INDEX 01 36:06:66
TRACK 06 AUDIO
TITLE "String Quartet no.12 in D-flat major, op.133 - 2. Allegretto"
PERFORMER "Borodin String Quartet"
INDEX 01 42:57:54

CD2

REM GENRE "Chamber Music"
REM DATE 1999
REM DISCID 9D0FC30D
REM COMMENT "ExactAudioCopy v1.0b3"
PERFORMER "Borodin String Quartet"
TITLE "Shostakovich: String Quartets Nos. 2, 3, 7, 8 & 12 [Disc 2]"
FILE "Shostakovich - String Quartets Nos. 2, 3, 7, 8 & 12 [Disc 2].flac" WAVE
TRACK 01 AUDIO
TITLE "String Quartet no.8 in C minor, op.110 - 1. Largo"
PERFORMER "Borodin String Quartet"
INDEX 00 00:00:00
INDEX 01 00:00:32
TRACK 02 AUDIO
TITLE "String Quartet no.8 in C minor, op.110 - 2. Allegro molto"
PERFORMER "Borodin String Quartet"
INDEX 01 05:00:03
TRACK 03 AUDIO
TITLE "String Quartet no.8 in C minor, op.110 - 3. Allegretto"
PERFORMER "Borodin String Quartet"
INDEX 01 07:51:38
TRACK 04 AUDIO
TITLE "String Quartet no.8 in C minor, op.110 - 4. Largo"
PERFORMER "Borodin String Quartet"
INDEX 01 12:04:33
TRACK 05 AUDIO
TITLE "String Quartet no.8 in C minor, op.110 - 5. Largo"
PERFORMER "Borodin String Quartet"
INDEX 01 17:49:40
TRACK 06 AUDIO
TITLE "String Quartet no.7 in F-sharp minor, op.108 - 1. Allegretto"
PERFORMER "Borodin String Quartet"
INDEX 00 21:39:02
INDEX 01 21:46:12
TRACK 07 AUDIO
TITLE "String Quartet no.7 in F-sharp minor, op.108 - 2. Lento"
PERFORMER "Borodin String Quartet"
INDEX 01 25:05:62
TRACK 08 AUDIO
TITLE "String Quartet no.7 in F-sharp minor, op.108 - 3. Allegro"
PERFORMER "Borodin String Quartet"
INDEX 01 28:36:00
TRACK 09 AUDIO
TITLE "String Quartet no.3 in F major, op.73 - 1. Allegretto"
PERFORMER "Borodin String Quartet"
INDEX 00 34:28:22
INDEX 01 34:39:00
TRACK 10 AUDIO
TITLE "String Quartet no.3 in F major, op.73 - 2. Moderato con moto"
PERFORMER "Borodin String Quartet"
INDEX 00 41:13:70
INDEX 01 41:16:00
TRACK 11 AUDIO
TITLE "String Quartet no.3 in F major, op.73 - 3. Allegro non troppo"
PERFORMER "Borodin String Quartet"
INDEX 00 46:36:72
INDEX 01 46:38:00
TRACK 12 AUDIO
TITLE "String Quartet no.3 in F major, op.73 - 4. Adagio"
PERFORMER "Borodin String Quartet"
INDEX 00 50:53:17
INDEX 01 50:55:25
TRACK 13 AUDIO
TITLE "String Quartet no.3 in F major, op.73 - 5. Moderato"
PERFORMER "Borodin String Quartet"
INDEX 01 56:44:27



Показать сообщения:    

Текущее время: 10-Дек 06:02

Часовой пояс: UTC + 3


Вы не можете начинать темы
Вы не можете отвечать на сообщения
Вы не можете редактировать свои сообщения
Вы не можете удалять свои сообщения
Вы не можете голосовать в опросах
Вы не можете прикреплять файлы к сообщениям
Вы не можете скачивать файлы