(Classical) Conforto, Porpora, Hasse, Nebra, C.P.E.Bach, Corradini, Marcoloni, Jommelli, Traetta - El Maestro Farinelli; Pablo Heras-Casado, Concerto Koln; Bejun Mehta - 2007, FLAC (image+.cue) lossless


 

[Цитировать]

El Maestro Farinelli (Pablo Heras-Casado, Concerto Köln)
Жанр: Classical
Год издания диска: 2014
Издатель (лейбл): Archiv Produktion
Номер по каталогу: 00289 479 2050
Аудиокодек: FLAC
Тип рипа: image+.cue
Битрейт аудио: lossless
Продолжительность: 68:31
Источник: собственный рип
Наличие сканов в содержимом раздачи: да
Исполнители:
Bejun Mehta, countertenor (6,12)
Concerto Köln
Pablo Heras-Casado, conductor
Треклист:
01. Conforto: Overture to La festa cinese
02. Porpora: Overture to Carlo il calvo
03-05. Hasse: Sinfonia op.5 no.6
06. Nebra: Tempestad grande from Vendado es amor, no es ciego
07-09. C.P.E.Bach: Snfonia in E minor "Fandango"
10. Corradini: Baile de las máscaras
11. Marcoloni: Overture to La dicha en la desgracia y vida campestre
12. Porpora: Alto Giove from Polifemo
13-18. Nebra: Seguidillas and Canción
19. Jommelli: Peridical Overture
20. Traetta: Overture to Armida

LOG EAC

Exact Audio Copy V1.0 beta 3 from 29. August 2011
EAC extraction logfile from 11. July 2014, 16:42
Pablo Heras-Casado - Concerto Köln / El Maestro Farinelli
Used drive : PIONEER DVD-RW DVR-218L Adapter: 0 ID: 0
Read mode : Secure
Utilize accurate stream : Yes
Defeat audio cache : Yes
Make use of C2 pointers : No
Read offset correction : 6
Overread into Lead-In and Lead-Out : No
Fill up missing offset samples with silence : Yes
Delete leading and trailing silent blocks : No
Null samples used in CRC calculations : Yes
Used interface : Native Win32 interface for Win NT & 2000
Used output format : User Defined Encoder
Selected bitrate : 128 kBit/s
Quality : High
Add ID3 tag : No
Command line compressor : C:\Program Files (x86)\Exact Audio Copy\Flac\flac.exe
Additional command line options : -V -8 -T "Date=%year%" -T "Genre=%genre%" %source%
TOC of the extracted CD
Track | Start | Length | Start sector | End sector
---------------------------------------------------------
1 | 0:00.00 | 3:59.65 | 0 | 17989
2 | 3:59.65 | 4:27.24 | 17990 | 38038
3 | 8:27.14 | 4:08.09 | 38039 | 56647
4 | 12:35.23 | 1:53.41 | 56648 | 65163
5 | 14:28.64 | 3:24.35 | 65164 | 80498
6 | 17:53.24 | 2:49.59 | 80499 | 93232
7 | 20:43.08 | 4:02.59 | 93233 | 111441
8 | 24:45.67 | 3:33.62 | 111442 | 127478
9 | 28:19.54 | 3:24.62 | 127479 | 142840
10 | 31:44.41 | 5:02.11 | 142841 | 165501
11 | 36:46.52 | 3:34.39 | 165502 | 181590
12 | 40:21.16 | 8:31.24 | 181591 | 219939
13 | 48:52.40 | 1:28.48 | 219940 | 226587
14 | 50:21.13 | 0:53.46 | 226588 | 230608
15 | 51:14.59 | 1:12.51 | 230609 | 236059
16 | 52:27.35 | 1:07.45 | 236060 | 241129
17 | 53:35.05 | 2:39.04 | 241130 | 253058
18 | 56:14.09 | 0:57.44 | 253059 | 257377
19 | 57:11.53 | 5:48.48 | 257378 | 283525
20 | 63:00.26 | 5:29.01 | 283526 | 308201
Range status and errors
Selected range
Filename C:\Program Files (x86)\Exact Audio Copy\Flac\El Maestro Farinelli.wav
Peak level 98.8 %
Extraction speed 2.1 X
Range quality 100.0 %
Test CRC 9626E83B
Copy CRC 9626E83B
Copy OK
No errors occurred
AccurateRip summary
Track 1 accurately ripped (confidence 1) [FF0EEA62] (AR v2)
Track 2 accurately ripped (confidence 1) [9D2BE506] (AR v2)
Track 3 accurately ripped (confidence 1) [DFEB7D96] (AR v2)
Track 4 accurately ripped (confidence 1) [C1068AB1] (AR v2)
Track 5 accurately ripped (confidence 1) [D1E7B2DF] (AR v2)
Track 6 accurately ripped (confidence 1) [16EAFBF3] (AR v2)
Track 7 accurately ripped (confidence 1) [2615B8BA] (AR v2)
Track 8 accurately ripped (confidence 1) [2EE513B8] (AR v2)
Track 9 accurately ripped (confidence 1) [521C3FD6] (AR v2)
Track 10 accurately ripped (confidence 1) [D6990E78] (AR v2)
Track 11 accurately ripped (confidence 1) [663C0D87] (AR v2)
Track 12 accurately ripped (confidence 1) [D16BD820] (AR v2)
Track 13 accurately ripped (confidence 1) [456F1384] (AR v2)
Track 14 accurately ripped (confidence 1) [5940DFA4] (AR v2)
Track 15 accurately ripped (confidence 1) [322F942A] (AR v2)
Track 16 accurately ripped (confidence 1) [705DCCE7] (AR v2)
Track 17 accurately ripped (confidence 1) [52EDB710] (AR v2)
Track 18 accurately ripped (confidence 1) [1BC6BA0A] (AR v2)
Track 19 accurately ripped (confidence 1) [D19720B2] (AR v2)
Track 20 accurately ripped (confidence 1) [34B86570] (AR v2)
All tracks accurately ripped
End of status report
---- CUETools DB Plugin V2.1.3
[CTDB TOCID: Y.8iJXT7ycKvrFywzEvAM4rXIEE-] disk not present in database, Submit result: Y.8iJXT7ycKvrFywzEvAM4rXIEE- has been uploaded
==== Log checksum F36350C03C8E4ED7BC95CB25F10EB71BE04AAB35F01514D0CBF904875BE53AA7 ====
mp3



Показать сообщения:    

Текущее время: 08-Дек 14:53

Часовой пояс: UTC + 3


Вы не можете начинать темы
Вы не можете отвечать на сообщения
Вы не можете редактировать свои сообщения
Вы не можете удалять свои сообщения
Вы не можете голосовать в опросах
Вы не можете прикреплять файлы к сообщениям
Вы не можете скачивать файлы