(Classical) Hilding Rosenberg - The Complete String Quartets (The Kyndel Quartet, The Gotland Quartet, The Copenhagen String Quartet, The Fresk Quartet, The Berwald Quartet, The Lysell Quartet, The Tale Quartet) - 1992, FLAC (image+.cue) lossless


 

[Цитировать]

Hilding Rosenberg - The Complete String Quartets (The Kyndel Quartet, The Gotland Quartet, The Copenhagen String Quartet, The Fresk Quartet, The Berwald Quartet, The Lysell Quartet, The Tale Quartet)
Жанр: Classical
Год издания диска: 1992
Издатель (лейбл): Caprice Records
Номер по каталогу:
Аудиокодек: FLAC
Тип рипа: image+.cue
Битрейт аудио: lossless
Продолжительность: CD1'69:35, CD2'69:32, CD3'61:50, CD4'52:33, CD5'53:17
Источник: скачано из сети
Наличие сканов в содержимом раздачи: да
Исполнители:
The Kyndel Quartet, [CD1 (1-3)]
The Gotland Quartet, [CD1 (4-7), 2 (9-14), 3 (5-7)]
The Copenhagen String Quartet, [CD1 (8-9)]
The Fresk Quartet, [CD2 (1-4), 5 (1-4)]
The Berwald Quartet, [CD2 (5-8)]
The Lysell Quartet, [CD3 (1-5, 8-10), 4 (1-5)]
The Tale Quartet [CD5 (5-8)]

Треклист:

CD1:
01. String Quartet No. 1 - I. Allegro energico [0:06:43.42]
02. II. Andante molto [0:06:00.00]
03. III. Allegro vivace — IV. Andante espressivo - Presto [0:09:57.18]
04. String Quartet No. 6 - I. Andante - Allegro [0:09:28.33]
05. II. Allegretto [0:03:27.27]
06. III. Presto [0:03:10.60]
07. IV. Adagio [0:05:27.18]
08. String Quartet No. 12, "Quartetto riepilogo" - Parte prima [0:15:16.15]
09. Parte seconda [0:10:06.38]
CD2:
01. String Quartet No. 4 - I. Allegro assai [0:04:29.21]
02. II. Poco lento [0:09:24.36]
03. III. Allegretto [0:03:34.42]
04. IV. Allegretto con brio [0:07:11.48]
05. String Quartet No. 7 - I. Moderato placido [0:04:35.57]
06. II. Poco lento [0:07:18.36]
07. III. Allegro giusto [0:06:05.03]
08. IV. Adagio con molto espressione - Allegro [0:07:27.09]
09. Moments musicaux - I. Allegro grazioso [0:04:51.18]
10. II. Allegro assai [0:02:26.39]
11. III. Lento espressivo [0:04:03.54]
12. IV. Allegretto [0:02:07.33]
13. V. Allegro [0:02:17.12]
14. VI. Andantino quasi allegretto [0:03:54.20]
CD3:
01. String Quartet No. 2 - I. Andante [0:03:48.72]
02. II. Allegro [0:03:11.66]
03. III. Lento [0:02:56.30]
04. IV. Moderato [0:03:32.57]
05. String Quartet No. 5 - I. Allegretto [0:06:55.06]
06. II. Presto [0:03:38.66]
07. III. Lento [0:12:34.69]
08. String Quartet No. 8 - I. Largo [0:09:23.30]
09. II. Andante [0:07:16.24]
10. III. Allegretto [0:08:37.44]
CD4:
01. String Quartet No. 3, "Quartetto pastorale" - I. Allegro assai [0:08:06.27]
02. II. Tema con variazioni [0:12:32.03]
03. III. Allegro vivace [0:04:57.00]
04. String Quartet No. 9 - Part I [0:13:55.42]
05. Part II: Tema con variazioni [0:13:28.08]
CD5:
01. String Quartet No. 10 - I. Moderato (quasi andante) [0:09:19.60]
02. II. Allegro vivace [0:05:01.24]
03. III. Poco adagio [0:07:43.24]
04. IV. Allegro assai [0:04:32.12]
05. String Quartet No. 11 - I. Allegro energico [0:05:35.39]
06. II. Moderato [0:07:07.51]
07. III. Allegro giusto [0:06:00.27]
08. IV. Poco lento - Allegro grazioso [0:08:13.08]

LOGs EAC:CD1:

Exact Audio Copy V1.0 beta 3 from 29. August 2011
EAC extraction logfile from 25. December 2013, 1:01
Hilding Rosenberg / String Quartets Nos. 1, 6 and 12
Used drive : TSSTcorpCDDVDW SH-S223C Adapter: 2 ID: 1
Read mode : Secure
Utilize accurate stream : Yes
Defeat audio cache : Yes
Make use of C2 pointers : No
Read offset correction : 697
Overread into Lead-In and Lead-Out : No
Fill up missing offset samples with silence : Yes
Delete leading and trailing silent blocks : No
Null samples used in CRC calculations : Yes
Used interface : Native Win32 interface for Win NT & 2000
Used output format : User Defined Encoder
Selected bitrate : 896 kBit/s
Quality : High
Add ID3 tag : No
Command line compressor : C:\Program Files (x86)\Exact Audio Copy\FLAC\FLAC.EXE
Additional command line options : -V -0 -T "COMMENT=Ripped by Tapaz9" -T "artist=%artist%" -T "title=%title%" -T "album=%albumtitle%" -T "date=%year%" -T "tracknumber=%tracknr%" -T "genre=%genre%" %source%
TOC of the extracted CD
Track | Start | Length | Start sector | End sector
---------------------------------------------------------
1 | 0:00.00 | 6:43.42 | 0 | 30266
2 | 6:43.42 | 6:00.00 | 30267 | 57266
3 | 12:43.42 | 9:57.18 | 57267 | 102059
4 | 22:40.60 | 9:28.33 | 102060 | 144692
5 | 32:09.18 | 3:27.27 | 144693 | 160244
6 | 35:36.45 | 3:10.60 | 160245 | 174554
7 | 38:47.30 | 5:27.18 | 174555 | 199097
8 | 44:14.48 | 15:16.15 | 199098 | 267812
9 | 59:30.63 | 10:06.38 | 267813 | 313300
Range status and errors
Selected range
Filename F:\Musique\Rosenberg, Hilding\Rosenberg_StringQuartet1_6and12\Hilding Rosenberg - String Quartets Nos. 1, 6 and 12.wav
Peak level 66.0 %
Extraction speed 14.5 X
Range quality 100.0 %
Copy CRC C34EA2FD
Copy OK
No errors occurred
End of status report
==== Log checksum 329407AA8DEE37F959C498D080ED789136D07B711E285012030DBC41BB7559D4 ====

CD2:

Exact Audio Copy V1.0 beta 3 from 29. August 2011
EAC extraction logfile from 7. January 2014, 0:46
Hilding Rosenberg / String Quartet Nos. 4 and 7, 6 Moments musicaux
Used drive : TSSTcorpCDDVDW SH-S223C Adapter: 2 ID: 1
Read mode : Secure
Utilize accurate stream : Yes
Defeat audio cache : Yes
Make use of C2 pointers : No
Read offset correction : 697
Overread into Lead-In and Lead-Out : No
Fill up missing offset samples with silence : Yes
Delete leading and trailing silent blocks : No
Null samples used in CRC calculations : Yes
Used interface : Native Win32 interface for Win NT & 2000
Used output format : User Defined Encoder
Selected bitrate : 896 kBit/s
Quality : High
Add ID3 tag : No
Command line compressor : C:\Program Files (x86)\Exact Audio Copy\FLAC\FLAC.EXE
Additional command line options : -V -0 -T "COMMENT=Ripped by Tapaz9" -T "artist=%artist%" -T "title=%title%" -T "album=%albumtitle%" -T "date=%year%" -T "tracknumber=%tracknr%" -T "genre=%genre%" %source%
TOC of the extracted CD
Track | Start | Length | Start sector | End sector
---------------------------------------------------------
1 | 0:00.00 | 4:29.21 | 0 | 20195
2 | 4:29.21 | 9:24.36 | 20196 | 62531
3 | 13:53.57 | 3:34.42 | 62532 | 78623
4 | 17:28.24 | 7:11.48 | 78624 | 110996
5 | 24:39.72 | 4:35.57 | 110997 | 131678
6 | 29:15.54 | 7:18.36 | 131679 | 164564
7 | 36:34.15 | 6:05.03 | 164565 | 191942
8 | 42:39.18 | 7:27.09 | 191943 | 225476
9 | 50:06.27 | 4:51.18 | 225477 | 247319
10 | 54:57.45 | 2:26.39 | 247320 | 258308
11 | 57:24.09 | 4:03.54 | 258309 | 276587
12 | 61:27.63 | 2:07.33 | 276588 | 286145
13 | 63:35.21 | 2:17.12 | 286146 | 296432
14 | 65:52.33 | 3:54.20 | 296433 | 314002
Range status and errors
Selected range
Filename F:\Musique\Rosenberg, Hilding\Rosenberg_StringQuartet4and7\Hilding Rosenberg - String Quartet Nos. 4 and 7, 6 Moments musicaux.wav
Peak level 78.7 %
Extraction speed 14.8 X
Range quality 100.0 %
Copy CRC 8512E63C
Copy OK
No errors occurred
End of status report
==== Log checksum D831C52C52AC306B1C02747A0D40E3C72C3B5D5424F2753B1BEB1FFF0B438629 ====

CD3:

Exact Audio Copy V1.0 beta 3 from 29. August 2011
EAC extraction logfile from 18. January 2014, 0:48
Hilding Rosenberg / String Quartets Nos. 2, 5 and 8
Used drive : TSSTcorpCDDVDW SH-S223C Adapter: 2 ID: 1
Read mode : Secure
Utilize accurate stream : Yes
Defeat audio cache : Yes
Make use of C2 pointers : No
Read offset correction : 697
Overread into Lead-In and Lead-Out : No
Fill up missing offset samples with silence : Yes
Delete leading and trailing silent blocks : No
Null samples used in CRC calculations : Yes
Used interface : Native Win32 interface for Win NT & 2000
Used output format : User Defined Encoder
Selected bitrate : 896 kBit/s
Quality : High
Add ID3 tag : No
Command line compressor : C:\Program Files (x86)\Exact Audio Copy\FLAC\FLAC.EXE
Additional command line options : -V -0 -T "COMMENT=Ripped by Tapaz9" -T "artist=%artist%" -T "title=%title%" -T "album=%albumtitle%" -T "date=%year%" -T "tracknumber=%tracknr%" -T "genre=%genre%" %source%
TOC of the extracted CD
Track | Start | Length | Start sector | End sector
---------------------------------------------------------
1 | 0:00.00 | 3:48.72 | 0 | 17171
2 | 3:48.72 | 3:11.66 | 17172 | 31562
3 | 7:00.63 | 2:56.30 | 31563 | 44792
4 | 9:57.18 | 3:32.57 | 44793 | 60749
5 | 13:30.00 | 6:55.06 | 60750 | 91880
6 | 20:25.06 | 3:38.66 | 91881 | 108296
7 | 24:03.72 | 12:34.69 | 108297 | 164915
8 | 36:38.66 | 9:23.30 | 164916 | 207170
9 | 46:02.21 | 7:16.24 | 207171 | 239894
10 | 53:18.45 | 8:37.44 | 239895 | 278713
Range status and errors
Selected range
Filename F:\Musique\Rosenberg, Hilding\Rosenberg_StringQuartet2_5and8\Hilding Rosenberg - String Quartets Nos. 2, 5 and 8.wav
Peak level 100.0 %
Extraction speed 13.8 X
Range quality 100.0 %
Copy CRC A32412C8
Copy OK
No errors occurred
End of status report
==== Log checksum E6EAB02E6EAD62B5B11C97508C4A8438A0E9D73AA5728F809972CFE03FA6652D ====

CD4:

Exact Audio Copy V1.0 beta 3 from 29. August 2011
EAC extraction logfile from 22. January 2014, 23:39
Hilding Rosenberg / String Quartets Nos. 3 and 9
Used drive : TSSTcorpCDDVDW SH-S223C Adapter: 2 ID: 1
Read mode : Secure
Utilize accurate stream : Yes
Defeat audio cache : Yes
Make use of C2 pointers : No
Read offset correction : 697
Overread into Lead-In and Lead-Out : No
Fill up missing offset samples with silence : Yes
Delete leading and trailing silent blocks : No
Null samples used in CRC calculations : Yes
Used interface : Native Win32 interface for Win NT & 2000
Used output format : User Defined Encoder
Selected bitrate : 896 kBit/s
Quality : High
Add ID3 tag : No
Command line compressor : C:\Program Files (x86)\Exact Audio Copy\FLAC\FLAC.EXE
Additional command line options : -V -0 -T "COMMENT=Ripped by Tapaz9" -T "artist=%artist%" -T "title=%title%" -T "album=%albumtitle%" -T "date=%year%" -T "tracknumber=%tracknr%" -T "genre=%genre%" %source%
TOC of the extracted CD
Track | Start | Length | Start sector | End sector
---------------------------------------------------------
1 | 0:00.00 | 8:06.27 | 0 | 36476
2 | 8:06.27 | 12:32.03 | 36477 | 92879
3 | 20:38.30 | 4:57.00 | 92880 | 115154
4 | 25:35.30 | 13:55.42 | 115155 | 177821
5 | 39:30.72 | 13:28.08 | 177822 | 238429
Range status and errors
Selected range
Filename F:\Musique\Rosenberg, Hilding\Rosenberg_StringQuartet3and9\Hilding Rosenberg - String Quartets Nos. 3 and 9.wav
Peak level 86.0 %
Extraction speed 14.0 X
Range quality 100.0 %
Copy CRC 22F479A1
Copy OK
No errors occurred
End of status report
==== Log checksum D20A0C7CAEBD25373B6B371EEC0400125A5C6021B425D5C433518F362361BAE7 ====

CD5:

Exact Audio Copy V1.0 beta 3 from 29. August 2011
EAC extraction logfile from 2. February 2014, 0:52
Hilding Rosenberg / String Quartet Nos. 10 and 11
Used drive : TSSTcorpCDDVDW SH-S223C Adapter: 2 ID: 1
Read mode : Secure
Utilize accurate stream : Yes
Defeat audio cache : Yes
Make use of C2 pointers : No
Read offset correction : 697
Overread into Lead-In and Lead-Out : No
Fill up missing offset samples with silence : Yes
Delete leading and trailing silent blocks : No
Null samples used in CRC calculations : Yes
Used interface : Native Win32 interface for Win NT & 2000
Used output format : User Defined Encoder
Selected bitrate : 896 kBit/s
Quality : High
Add ID3 tag : No
Command line compressor : C:\Program Files (x86)\Exact Audio Copy\FLAC\FLAC.EXE
Additional command line options : -V -0 -T "COMMENT=Ripped by Tapaz9" -T "artist=%artist%" -T "title=%title%" -T "album=%albumtitle%" -T "date=%year%" -T "tracknumber=%tracknr%" -T "genre=%genre%" %source%
TOC of the extracted CD
Track | Start | Length | Start sector | End sector
---------------------------------------------------------
1 | 0:00.00 | 9:19.60 | 0 | 41984
2 | 9:19.60 | 5:01.24 | 41985 | 64583
3 | 14:21.09 | 7:43.24 | 64584 | 99332
4 | 22:04.33 | 4:32.12 | 99333 | 119744
5 | 26:36.45 | 5:35.39 | 119745 | 144908
6 | 32:12.09 | 7:07.51 | 144909 | 176984
7 | 39:19.60 | 6:00.27 | 176985 | 204011
8 | 45:20.12 | 8:13.08 | 204012 | 240994
Range status and errors
Selected range
Filename F:\Musique\Rosenberg, Hilding\Rosenberg_StringQuartet10and11\Hilding Rosenberg - String Quartet Nos. 10 and 11.wav
Peak level 88.7 %
Extraction speed 13.2 X
Range quality 100.0 %
Copy CRC C257CA6C
Copy OK
No errors occurred
End of status report
==== Log checksum 8C3234747576CA815CA179BC56E56D3BFC2671CABDAA85CDA4590F969F1E7DEE ====
Без бонус диска
mp3



Показать сообщения:    

Текущее время: 05-Дек 15:32

Часовой пояс: UTC + 3


Вы не можете начинать темы
Вы не можете отвечать на сообщения
Вы не можете редактировать свои сообщения
Вы не можете удалять свои сообщения
Вы не можете голосовать в опросах
Вы не можете прикреплять файлы к сообщениям
Вы не можете скачивать файлы