По Волне Моей Памяти. Золотой Винил (Олег Нестеров) ч.34 [2010-2014. Телепередача. IPTVRip]


Статистика раздачи [Обновить пиров]
Размер:  4.36 GB   |    Зарегистрирован:  8 месяцев 24 дня   |    Скачан:  0 раз

Полного источника не было: Никогда

Личеров:  3  [  0 KB/s  ]   Подробная статистика пиров
 
   
 
 
 

[Цитировать]

По Волне Моей Памяти. Золотой Винил (Олег Нестеров) ч.34- Год выпуска: 2010-2014 Страна: Россия Жанр: Телепередача-Продолжительность: 9 передач (см. "Тех. данные файлов")
Режиссер: Канал "ВРЕМЯ" В ролях: Олег Нестеров-Описание: Авторская программа Олега Нестерова. Это - непринужденный разговор о любимой музыке, воспитавшей несколько поколений - с ее создателями.-Список передач: По Волне Моей Памяти: А.Бараш, М.Козырев, О.Газманов, С.Летов, С.Скрипка. Золотой Винил: Озеро Надежды, Осенние Листья, Осень.-Качество: IPTVRip Формат: AVI
Видео кодек: XviD Аудио кодек: MP3-Видео: 704x512 ~1600 Kbps 25.00 fps Аудио: MPEG Audio Layer 3 48000 Hz stereo 128 Kbps CBR

Тех. данные файлов:

А.Бараш. По Волне Моей Памяти. 704x512 1600 Kbps 00:52:48
М.Козырев. По Волне Моей Памяти. 704x512 1600 Kbps 00:52:05
О.Газманов. По Волне Моей Памяти. 704x512 1600 Kbps 00:53:13
С.Летов. По Волне Моей Памяти.ч.1. 704x512 1600 Kbps 00:48:56
С.Летов. По Волне Моей Памяти.ч.2. 704x512 1600 Kbps 00:50:38
С.Скрипка. По Волне Моей Памяти. 704x512 1601 Kbps 00:53:00
Золотой Винил. Озеро Надежды. 704x512 1600 Kbps 00:15:54
Золотой Винил. Осенние Листья. 704x512 1600 Kbps 00:16:02
Золотой Винил. Осень. 704x512 1600 Kbps 00:16:27

Скриншоты: кликните для увеличения


MediaInfo:

General
Format : AVI
Format/Info : Audio Video Interleave
File size : 657 MiB
Duration : 52mn 48s
Overall bit rate : 1 739 Kbps
Writing application : VirtualDubMod 1.5.10.3 | www.virtualdub-fr.org || (build 2550/release)
Writing library : VirtualDubMod build 2550/release
Video
ID : 0
Format : MPEG-4 Visual
Format profile : Advanced Simple@L5
Format settings, BVOP : Yes
Format settings, QPel : No
Format settings, GMC : No warppoints
Format settings, Matrix : Default (MPEG)
Codec ID : XVID
Codec ID/Hint : XviD
Duration : 52mn 48s
Bit rate : 1 601 Kbps
Width : 704 pixels
Height : 512 pixels
Display aspect ratio : 1.375
Frame rate : 25.000 fps
Color space : YUV
Chroma subsampling : 4:2:0
Bit depth : 8 bits
Scan type : Progressive
Compression mode : Lossy
Bits/(Pixel*Frame) : 0.178
Stream size : 605 MiB (92%)
Writing library : XviD 1.2.1 (UTC 2008-12-04)
Audio
ID : 1
Format : MPEG Audio
Format version : Version 1
Format profile : Layer 3
Codec ID : 55
Codec ID/Hint : MP3
Duration : 52mn 48s
Bit rate mode : Constant
Bit rate : 128 Kbps
Channel(s) : 2 channels
Sampling rate : 48.0 KHz
Compression mode : Lossy
Stream size : 48.3 MiB (7%)
Alignment : Aligned on interleaves
Interleave, duration : 40 ms (1.00 video frame)
Interleave, preload duration : 504 ms
Writing library : LAME3.99r
Encoding settings : -m s -V 4 -q 0 -lowpass 17 -b 128

Все передачи "По Волне Моей Памяти":

По Волне Моей Памяти (Олег Нестеров) ч.1
По Волне Моей Памяти (Олег Нестеров) ч.2
По Волне Моей Памяти (Олег Нестеров) ч.3
По Волне Моей Памяти (Олег Нестеров) ч.4
По Волне Моей Памяти (Олег Нестеров) ч.5
По Волне Моей Памяти (Олег Нестеров) ч.6
По Волне Моей Памяти (Олег Нестеров) ч.7
По Волне Моей Памяти (Олег Нестеров) ч.8
По Волне Моей Памяти (Олег Нестеров) ч.9
По Волне Моей Памяти (Олег Нестеров) ч.10
По Волне Моей Памяти (Олег Нестеров) ч.11
По Волне Моей Памяти (Олег Нестеров) ч.12
По Волне Моей Памяти (Олег Нестеров) ч.13
По Волне Моей Памяти (Олег Нестеров) ч.14
По Волне Моей Памяти (Олег Нестеров) ч.15
По Волне Моей Памяти (Олег Нестеров) ч.16
По Волне Моей Памяти (Олег Нестеров) ч.17
По Волне Моей Памяти (Олег Нестеров) ч.18
По Волне Моей Памяти (Олег Нестеров) ч.19
По Волне Моей Памяти (Олег Нестеров) ч.20
По Волне Моей Памяти (Олег Нестеров) ч.21
По Волне Моей Памяти (Олег Нестеров) ч.22
По Волне Моей Памяти (Олег Нестеров) ч.23
По Волне Моей Памяти (Олег Нестеров) ч.24
По Волне Моей Памяти (Олег Нестеров) ч.25
По Волне Моей Памяти (Олег Нестеров) ч.26
По Волне Моей Памяти (Олег Нестеров) ч.27
По Волне Моей Памяти (Олег Нестеров) ч.28
По Волне Моей Памяти (Олег Нестеров) ч.29
По Волне Моей Памяти (Олег Нестеров) ч.30
По Волне Моей Памяти (Олег Нестеров) ч.31
По Волне Моей Памяти (Олег Нестеров) ч.32
По Волне Моей Памяти (Олег Нестеров) ч.33
По Волне Моей Памяти (Олег Нестеров) ч.35
По Волне Моей Памяти (Олег Нестеров) ч.36
По Волне Моей Памяти (Олег Нестеров) ч.37
По Волне Моей Памяти (Олег Нестеров) ч.38
По Волне Моей Памяти (Олег Нестеров) ч.39
[teatrix.ru].t18891.torrent 
Торрент: Зарегистрирован [ 2016-03-18 12:17 ] · 2BB877C79B2029428E88960BA90D03F11D158F57

Скачать .torrent

Скачать

23 KB

Статус: проверено
Скачан: 0 раз
Размер: 4.36 GB
terms.php



Быстрый ответ

Имя:

      
Для отправки сообщений необходимо включить JavaScript
Показать сообщения:    

Текущее время: 11-Дек 14:58

Часовой пояс: UTC + 3


Вы можете начинать темы
Вы можете отвечать на сообщения
Вы не можете редактировать свои сообщения
Вы не можете удалять свои сообщения
Вы не можете голосовать в опросах
Вы не можете прикреплять файлы к сообщениям
Вы можете скачивать файлы