(Classical, Concerto, Piano) Chopin - Piano Concertos Nos.1 & 2 {Hiroko Nakamura, Anatole Fistoulari, London Symphony Orchestra} - 1985, FLAC (tracks+.cue), lossless


Статистика раздачи [Обновить пиров]
Размер:  317 MB   |    Зарегистрирован:  8 месяцев 20 дней   |    Скачан:  0 раз

Полного источника не было: Никогда

Личеров:  4  [  0 KB/s  ]   Подробная статистика пиров
 
   
 
 
 

[Цитировать]

Hiroko Nakamura, Anatole Fistoulari, London Symphony Orchestra - Chopin: Piano Concertos Nos.1 & 2
Жанр: Classical, Concerto, Piano
Страна-производитель диска: Япония
Год издания диска: 1985
Издатель (лейбл): Sony
Номер по каталогу: SRCR 2048
Аудиокодек: FLAC
Тип рипа: tracks+.cue
Битрейт аудио: lossless
Продолжительность: 72:16
Источник (релизер): what.cd
Наличие сканов в содержимом раздачи: да
Треклист:
Frederic Chopin (1810-1849)
Piano Concerto No.1 in E minor, Op.11

01. I. Allegro maestoso (20:31)
02. II. Romanze: Larghetto (10:16)
03. III. Rondo: Vivace (10:09)
Piano Concerto No.2 in F minor, Op.21
04. I.Maestoso (13:52)
05. II. Larghetto (9:05)
06. III. Allegro vivace (8:23)
Исполнители:
Hiroko Nakamura - piano
London Symphony Orchestra
Anatole Fistoulari - conductor
Recorded at EMI Studio, Abbey Road, London on July 4-9, 1984.

Лог создания рипа

Exact Audio Copy V1.0 beta 3 from 29. August 2011
EAC extraction logfile from 29. May 2014, 18:01
Hiroko Nakamura, London Symphony Orchestra, Anatole Fistoulari / Piano Concertos No.1 & No.2
Used drive : TSSTcorpDVD+-RW TS-U633F Adapter: 1 ID: 0
Read mode : Secure
Utilize accurate stream : Yes
Defeat audio cache : Yes
Make use of C2 pointers : No
Read offset correction : 6
Overread into Lead-In and Lead-Out : No
Fill up missing offset samples with silence : Yes
Delete leading and trailing silent blocks : No
Null samples used in CRC calculations : Yes
Used interface : Installed external ASPI interface
Gap handling : Appended to previous track
Used output format : User Defined Encoder
Selected bitrate : 1024 kBit/s
Quality : High
Add ID3 tag : No
Command line compressor : C:\Program Files\Exact Audio Copy\Flac\flac.exe
Additional command line options : -8 -V -T "ARTIST=%artist%" -T "TITLE=%title%" -T "ALBUM=%albumtitle%" -T "DATE=%year%" -T "TRACKNUMBER=%tracknr%" -T "GENRE=%genre%" -T "PERFORMER=%albuminterpret%" -T "COMPOSER=%composer%" %haslyrics%--tag-from-file=LYRICS="%lyricsfile%"%haslyrics% -T "ALBUMARTIST=%albumartist%" -T "DISCNUMBER=%cdnumber%" -T "TOTALDISCS=%totalcds%" -T "TOTALTRACKS=%numtracks%" -T "COMMENT=%comment%" %source% -o %dest%
TOC of the extracted CD
Track | Start | Length | Start sector | End sector
---------------------------------------------------------
1 | 0:00.00 | 20:30.57 | 0 | 92306
2 | 20:30.57 | 10:15.53 | 92307 | 138484
3 | 30:46.35 | 10:08.60 | 138485 | 184144
4 | 40:55.20 | 13:52.17 | 184145 | 246561
5 | 54:47.37 | 9:05.23 | 246562 | 287459
6 | 63:52.60 | 8:23.05 | 287460 | 325189
Track 1
Filename H:\flac\Hiroko Nakamura\01 - Piano Concerto No. 1 in E minor, Op.11 - 1. Allegro maestoso.wav
Pre-gap length 0:00:02.00
Peak level 100.0 %
Extraction speed 1.7 X
Track quality 100.0 %
Test CRC 3D926E59
Copy CRC 3D926E59
Accurately ripped (confidence 1) [26264A01] (AR v1)
Copy OK
Track 2
Filename H:\flac\Hiroko Nakamura\02 - Piano Concerto No. 1 in E minor, Op.11 - 2. Romanze - Larghetto.wav
Pre-gap length 0:00:01.89
Peak level 57.9 %
Extraction speed 2.1 X
Track quality 100.0 %
Test CRC C9237682
Copy CRC C9237682
Accurately ripped (confidence 1) [FE95AD10] (AR v1)
Copy OK
Track 3
Filename H:\flac\Hiroko Nakamura\03 - Piano Concerto No. 1 in E minor, Op.11 - 3. Rondo - Vivace.wav
Peak level 100.0 %
Extraction speed 2.3 X
Track quality 100.0 %
Test CRC 564D8153
Copy CRC 564D8153
Accurately ripped (confidence 1) [50D98A1E] (AR v1)
Copy OK
Track 4
Filename H:\flac\Hiroko Nakamura\04 - Piano Concerto No. 2 in F minor, Op.21 - 1.Maestoso.wav
Pre-gap length 0:00:06.90
Peak level 100.0 %
Extraction speed 2.5 X
Track quality 100.0 %
Test CRC 3C379304
Copy CRC 3C379304
Accurately ripped (confidence 1) [EA52A17D] (AR v1)
Copy OK
Track 5
Filename H:\flac\Hiroko Nakamura\05 - Piano Concerto No. 2 in F minor, Op.21 - 2. Larghetto.wav
Pre-gap length 0:00:04.29
Peak level 63.3 %
Extraction speed 2.7 X
Track quality 100.0 %
Test CRC A35A63DE
Copy CRC A35A63DE
Accurately ripped (confidence 1) [D3B4E097] (AR v1)
Copy OK
Track 6
Filename H:\flac\Hiroko Nakamura\06 - Piano Concerto No. 2 in F minor, Op.21 - 3. Allegro vivace.wav
Peak level 100.0 %
Extraction speed 2.8 X
Track quality 100.0 %
Test CRC F4EF9812
Copy CRC F4EF9812
Accurately ripped (confidence 1) [11ABD2AD] (AR v1)
Copy OK
All tracks accurately ripped
No errors occurred
End of status report
==== Log checksum F60FAF8392C81221F0D27B2FE79EF09778713561604696130DD28241032A725C ====

Содержание индексной карты (.CUE)

REM GENRE Classical
REM DATE 1985
REM DISCID 5910EF06
REM COMMENT "ExactAudioCopy v1.0b3"
PERFORMER "Hiroko Nakamura & Anatole Fistoulari"
TITLE "Chopin: Piano Concertos Nos.1 & 2"
FILE "01 - Piano Concerto No.1 in E minor, Op.11- I. Allegro maestoso.wav" WAVE
TRACK 01 AUDIO
TITLE "Piano Concerto No.1 in E minor, Op.11: I. Allegro maestoso"
PERFORMER "Hiroko Nakamura & Anatole Fistoulari"
ISRC JPSR08439680
FLAGS PRE
INDEX 01 00:00:00
TRACK 02 AUDIO
TITLE "Piano Concerto No.1 in E minor, Op.11: II. Romanze: Larghetto"
PERFORMER "Hiroko Nakamura & Anatole Fistoulari"
ISRC JPSR08439680
FLAGS PRE
INDEX 00 20:28:65
FILE "02 - Piano Concerto No.1 in E minor, Op.11- II. Romanze- Larghetto.wav" WAVE
INDEX 01 00:00:00
FILE "03 - Piano Concerto No.1 in E minor, Op.11- III. Rondo- Vivace.wav" WAVE
TRACK 03 AUDIO
TITLE "Piano Concerto No.1 in E minor, Op.11: III. Rondo: Vivace"
PERFORMER "Hiroko Nakamura & Anatole Fistoulari"
ISRC JPSR08439680
FLAGS PRE
INDEX 01 00:00:00
TRACK 04 AUDIO
TITLE "Piano Concerto No.2 in F minor, Op.21: I.Maestoso"
PERFORMER "Hiroko Nakamura & Anatole Fistoulari"
ISRC JPSR08506140
FLAGS PRE
INDEX 00 10:01:67
FILE "04 - Piano Concerto No.2 in F minor, Op.21- I.Maestoso.wav" WAVE
INDEX 01 00:00:00
TRACK 05 AUDIO
TITLE "Piano Concerto No.2 in F minor, Op.21: II. Larghetto"
PERFORMER "Hiroko Nakamura & Anatole Fistoulari"
ISRC JPSR08506140
FLAGS PRE
INDEX 00 13:47:70
FILE "05 - Piano Concerto No.2 in F minor, Op.21- II. Larghetto.wav" WAVE
INDEX 01 00:00:00
FILE "06 - Piano Concerto No.2 in F minor, Op.21- III. Allegro vivace.wav" WAVE
TRACK 06 AUDIO
TITLE "Piano Concerto No.2 in F minor, Op.21: III. Allegro vivace"
PERFORMER "Hiroko Nakamura & Anatole Fistoulari"
ISRC JPSR08506140
FLAGS PRE
INDEX 01 00:00:00

Отчет CUETools

[CUETools log; Date: 14.07.2014 20:27:18; Version: 2.1.4]
[CTDB TOCID: D9hjF0YFNGdpsgEhG8HlBU3S9gA-] disk not present in database.
[AccurateRip ID: 00137125-00644236-5910ef06] found.
Track [ CRC | V2 ] Status
01 [26264a01|d86abf4a] (1+0/1) Accurately ripped
02 [fe95ad10|4ae28ce6] (1+0/1) Accurately ripped
03 [50d98a1e|98b63edc] (1+0/1) Accurately ripped
04 [ea52a17d|e124b963] (1+0/1) Accurately ripped
05 [d3b4e097|332084d9] (1+0/1) Accurately ripped
06 [11abd2ad|f8804d97] (1+0/1) Accurately ripped
Track Peak [ CRC32 ] [W/O NULL] [ LOG ]
-- 100,0 [D2746194] [5706285A]
01 100,0 [3D926E59] [41E193AC] CRC32
02 57,9 [C9237682] [A1F9C7B2] CRC32
03 100,0 [564D8153] [3334A60E] CRC32
04 100,0 [3C379304] [59E94F6F] CRC32
05 63,3 [A35A63DE] [2E643785] CRC32
06 100,0 [F4EF9812] [2F6DB552] CRC32

Как слушать диск с pre-emphasis (пре-эмфазисом)

Для правильного прослушивания в фубаре потребуется компонент foo_deemph.dll, который можно скачать отсюда.
В файлы добавлен тег "PRE-EMPHASIS=1".
[teatrix.ru].t18893.torrent 
Торрент: Зарегистрирован [ 2016-03-18 12:16 ] · 7A7B779233D8ED34E9FEE56C62A68BB458A6DDF8

Скачать .torrent

Скачать

14 KB

Статус: проверено
Скачан: 0 раз
Размер: 317 MB
terms.php



Быстрый ответ

Имя:

      
Для отправки сообщений необходимо включить JavaScript
Показать сообщения:    

Текущее время: 08-Дек 07:04

Часовой пояс: UTC + 3


Вы можете начинать темы
Вы можете отвечать на сообщения
Вы не можете редактировать свои сообщения
Вы не можете удалять свои сообщения
Вы не можете голосовать в опросах
Вы не можете прикреплять файлы к сообщениям
Вы можете скачивать файлы