(Classical) Handel-Sonata for flute and piano; Schubert- Introduction and variations for flute and piano; Mozart-Quartet No. 1,Concerto for flute and harp (Корнеев;Гилельс;Эрдели;Московский камерный оркестр,Баршай) - 2006, WavPack (iso.wv) lossless


 

[Цитировать]

Handel-Sonata for flute and piano;
Schubert- Introduction and variations for flute and piano;
Mozart-Quartet No. 1,Concerto for flute and harp
(Корнеев;Гилельс;Цыганов;Дружинин;Ширинский;Эрдели; Московский камерный оркестр,Баршай)
Жанр: Classical
Страна-производитель диска: Россия
Год издания диска: 2006
Издатель (лейбл): Мелодия
Номер по каталогу: MEL CD 10 01015
Дата записи: 1958,1965,1967
Аудиокодек: WavPack
Тип рипа: iso.wv
Битрейт аудио: lossless
Продолжительность: 01:12:37
Источник: shatterhand
Наличие сканов в содержимом раздачи: да
Треклист:
Georg Friedrich Handel (1685-1759)
Sonata for flute and piano Op. 7 in A minor
01. Grave (3:53)
02. Allegro (2:59)
03. Adagio (3:00)
04. Allegro appassionato (3:56)
Franz Peter Schubert (1797-1828)
05. Introduction and variations for flute and piano Op. 160 in E minor Ihr Blumlein alle (20:19)
Wolfgang Amadeus Mozart (1756 - 1791)
Quartet No. 1 for flute, violin, viola and cello in D major, KV 285
06. I. Allegro (6:33)
07. II. Adagio (3:14)
08. III. Rondo (4:07)
Concerto for flute and harp with orchestra in С major, KV 299
09. Allegro (9:55)
10. Andantino (7:13)
11. Rondo. Allegro (7:24)
Исполнители:
Александр Корнеев флейта,
Эмиль Гилельс фортепиано (1-5)
Дмитрий Цыганов, скрипка, Федор Дружинин альт,
Сергей Ширинский, виолончель (6—8)
Ольга Эрдели, арфа. Московский камерный оркестр.
Рудольф Баршай, дирижер (9-11)

Перечень файлов (содержимое) контейнера в текстовом виде.

1. Содержимое CUE-файла.
2. Отчёт ЕАС.
3. Аудиофайл (.wv)
4. Сканы: буклет, диск, (полные) JPG;
5. тех. данные
6. Сканы front, CD, Back формат jpeg

Лог создания рипа

Exact Audio Copy V1.0 beta 3 from 29. August 2011
EAC extraction logfile from 11. March 2014, 9:12
Александр Корнеев / Гендель, Шуберт, Моцарт
Used drive : TSSTcorpCDDVDW SH-S223F Adapter: 0 ID: 1
Read mode : Secure
Utilize accurate stream : Yes
Defeat audio cache : Yes
Make use of C2 pointers : No
Read offset correction : 6
Overread into Lead-In and Lead-Out : No
Fill up missing offset samples with silence : Yes
Delete leading and trailing silent blocks : No
Null samples used in CRC calculations : Yes
Used interface : Native Win32 interface for Win NT & 2000
Used output format : User Defined Encoder
Selected bitrate : 1024 kBit/s
Quality : High
Add ID3 tag : No
Command line compressor : C:\Program Files\Exact Audio Copy\wavpack.exe
Additional command line options : -hm %source% %dest%
TOC of the extracted CD
Track | Start | Length | Start sector | End sector
---------------------------------------------------------
1 | 0:00.00 | 3:52.30 | 0 | 17429
2 | 3:52.30 | 2:59.03 | 17430 | 30857
3 | 6:51.33 | 3:00.30 | 30858 | 44387
4 | 9:51.63 | 3:57.02 | 44388 | 62164
5 | 13:48.65 | 20:18.51 | 62165 | 153565
6 | 34:07.41 | 6:33.37 | 153566 | 183077
7 | 40:41.03 | 3:14.45 | 183078 | 197672
8 | 43:55.48 | 4:08.48 | 197673 | 216320
9 | 48:04.21 | 9:55.64 | 216321 | 261009
10 | 58:00.10 | 7:13.15 | 261010 | 293499
11 | 65:13.25 | 7:24.26 | 293500 | 326825
Range status and errors
Selected range
Filename D:\iso\Александр Корнеев - Гендель, Шуберт, Моцарт\Александр Корнеев - Гендель, Шуберт, Моцарт.wav
Peak level 57.3 %
Extraction speed 1.8 X
Range quality 100.0 %
Test CRC 230B82BE
Copy CRC 230B82BE
Copy OK
No errors occurred
AccurateRip summary
Track 1 not present in database
Track 2 not present in database
Track 3 not present in database
Track 4 not present in database
Track 5 not present in database
Track 6 not present in database
Track 7 not present in database
Track 8 not present in database
Track 9 not present in database
Track 10 not present in database
Track 11 not present in database
None of the tracks are present in the AccurateRip database
End of status report
==== Log checksum 5A064969CBCE94E86B05583864C1373ED26549D5738B25C1FE167F69091A21CB ====

Содержание индексной карты (.CUE)

REM GENRE "Classical"
REM DATE 2006
REM DISCID 9811050B
REM COMMENT "ExactAudioCopy v1.0b3"
PERFORMER "Александр Корнеев"
TITLE "Гендель, Шуберт, Моцарт"
FILE "Aleksandr Korneev - 2006 - Gendel', SHubert, Mocart (Melodiya MEL CD 10 01015) [NL+].wv" WAVE
TRACK 01 AUDIO
TITLE "Георг Фридрих Гендель, Соната ля минор для флейты и фортепиано, соч. 7: I. G..."
PERFORMER "Александр Корнеев"
FLAGS DCP
INDEX 01 00:00:00
TRACK 02 AUDIO
TITLE "Георг Фридрих Гендель, Соната ля минор для флейты и фортепиано, соч. 7: II. ..."
PERFORMER "Александр Корнеев"
FLAGS DCP
INDEX 01 03:52:30
TRACK 03 AUDIO
TITLE "Георг Фридрих Гендель, Соната ля минор для флейты и фортепиано, соч. 7: III...."
PERFORMER "Александр Корнеев"
FLAGS DCP
INDEX 01 06:51:33
TRACK 04 AUDIO
TITLE "Георг Фридрих Гендель, Соната ля минор для флейты и фортепиано, соч. 7: IV. ..."
PERFORMER "Александр Корнеев"
FLAGS DCP
INDEX 01 09:51:63
TRACK 05 AUDIO
TITLE "Франц Шуберт, Интродукция и вариации ми минор для флейты и фортепиано, соч. 160"
PERFORMER "Александр Корнеев"
FLAGS DCP
INDEX 01 13:48:65
TRACK 06 AUDIO
TITLE "Вольфганг Амадей Моцарт, Квартет для флейты, скрипки, альта и виолончели № 1..."
PERFORMER "Александр Корнеев"
FLAGS DCP
INDEX 01 34:07:41
TRACK 07 AUDIO
TITLE "Вольфганг Амадей Моцарт, Квартет для флейты, скрипки, альта и виолончели № 1..."
PERFORMER "Александр Корнеев"
FLAGS DCP
INDEX 01 40:41:03
TRACK 08 AUDIO
TITLE "Вольфганг Амадей Моцарт, Квартет для флейты, скрипки, альта и виолончели № 1..."
PERFORMER "Александр Корнеев"
FLAGS DCP
INDEX 01 43:55:48
TRACK 09 AUDIO
TITLE "Вольфганг Амадей Моцарт, Концерт до мажор для флейты и арфы с оркестром, К. ..."
PERFORMER "Александр Корнеев"
FLAGS DCP
INDEX 01 48:04:21
TRACK 10 AUDIO
TITLE "Вольфганг Амадей Моцарт, Концерт до мажор для флейты и арфы с оркестром, К. ..."
PERFORMER "Александр Корнеев"
FLAGS DCP
INDEX 01 58:00:10
TRACK 11 AUDIO
TITLE "Вольфганг Амадей Моцарт, Концерт до мажор для флейты и арфы с оркестром, К. ..."
PERFORMER "Александр Корнеев"
FLAGS DCP
INDEX 01 65:13:25

Лог проверки качества


 
 

Скриншот спектра частот

Доп. информация


Александр Васильевич Корнеeв - профессор Московской консерватории, солист Московской государственной академической филармонии, народный артист России, лауреат Государственной премии России, Премии Мэрии Москвы, кавалер ордена Почета, лауреат многих международных конкурсов.
Родился в 1930 году, закончил Московскую консерваторию по классу флейты профессора В. Цыбина и по классу оперно-симфонического дирижирования у Б. Хайкина. Его имя широко известно как в России, так и за рубежом. Музыкальные критики называют его «Золотой флейтой России».
Александр Корнеев - артист яркого и самобытного таланта, многогранный музыкант. Он выступает не только с сольными концертами, но и известен в музыкальных кругах как симфонический дирижер. В этом качестве Корнеев осуществил множество премьер произведений современных авторов:
С. Губайдулиной, А. Холминова, Н. Сидельникова, Р. Щедрина и других выдающихся композиторов. Под руководством Корнеева прозвучало
большое количество симфонических произведений и инструментальных концертов композиторов бывшего СССР, Англии, Франции, Германии.
А также произведений А. Глазунова, С. Прокофьева, А. Меликова, А. Луппова. Более 30 лет работал Корнеев в Большом Симфоническом Оркестре
Радио и Телевидения. Как солист выступал с крупнейшими дирижерами, такими как Н. Голованов, А. Гаук, С. Самосуд, Л. Мелик-Пашаев, Е. Мравинский,
Г. Рождественский, Б. Хайкин, Е. Светланов, В. Ферреро, К. Цекки. Как дирижер - с выдающимися солистами — И.Козловским, В.Дуловой,
А. Наседкиным, В. Яглинг и другими.
Он так же является создателем, художественным руководителем и дирижером блистательного Ансамбля солистов-виртуозов Большого Симфонического оркестра Радио и Телевидения, в репертуар которого наряду с классическими произведениями входят и произведения композиторов XX века: А. Шнитке, Э.Денисова, Р. Габичвадзе, Д. Мийо, А. Жоливе.
В разное время его партнерами по камерному ансамблю были С. Рихтер, Д. Ойстрах, Л. Оборин, Э. Гилельс, М. Ростропович, Д. Шафран. Т. Николаева, А. Гедике. А. Корнеев - обладатель почетного сертификата Карнеги-Холл «Лучший педагог». Активную концертную деятельность музыкант успешно
сочетает с педагогической работой в Московской консерватории. Мастер-классы проходят во многих городах России, а также в Японии, Турции,
США, Испании, Польше, на Мальте. Его ученики - лауреаты престижных всероссийских и международных конкурсов.
А. Корнеев является председателем и членом жюри международных и региональных конкурсов и фестивалей.
Исполнительское творчество Корнеева получает восторженные оценки музыкальных критиков:
«...Этот чародей, извлекает из своей флейты звуки необыкновенной выразительности и красоты, интонирует столь точно и органично, что кажется
иначе и «дышать» не может музыка, которую он в данный момент играет...». В рецензиях часто отмечаются «яркая индивидуальность», «узнаваемая манера исполнения», «тонкий музыкальный вкус, глубокая проникновенность, виртуозное владение инструментом», «абсолютно корректная
и стилистически точная интерпретация».
«Я питаю к Александру Корнееву самые теплые, дружеские чувства - так отзывался о музыканте Эмиль Гилельс, в ансамбле с которым ему неоднократно
довелось выступать. - Его искусство прекрасно, молодо и зрело. Он всегда обращал на себя внимание своей целеустремленностью. Мне приятно было
общение с ним, это музыкант, испытывающий горячее чувство любви к своей профессии».
«Искусство Корнеева тесно связано с русской музыкой - всех ее времен, - говорил композитор А.С. Леман. - Под его влиянием современные композиторы создают новые произведения для флейты соло, флейты с оркестром, ансамбли. Он интерпретирует их с глубоким чувством и пониманием, это музыкант большого масштаба».Кандидат искусствоведения
О. Комарницкая



Показать сообщения:    

Текущее время: 10-Дек 19:43

Часовой пояс: UTC + 3


Вы не можете начинать темы
Вы не можете отвечать на сообщения
Вы не можете редактировать свои сообщения
Вы не можете удалять свои сообщения
Вы не можете голосовать в опросах
Вы не можете прикреплять файлы к сообщениям
Вы не можете скачивать файлы