(Chamber Music for Strings) Felix Mendelssohn - Octet, Quintets # 1 & 2, Quartet # 2 (Hausmusik London) - 1995, FLAC (image+.cue) lossless


 

[Цитировать]

Felix Mendelssohn - Octet, Quintets #1 & 2, Quartet #2Hausmusik London Жанр: Chamber Music for Strings
Страна-производитель диска: EU
Год издания диска: 1995
Издатель (лейбл): Virgin Classics
Номер по каталогу: 7243 5 6 1809 2 5
Дата записи: 1993 (CD1), 1989 (CD 2)
Аудиокодек: FLAC
Тип рипа: image+.cue
Битрейт аудио: lossless
Продолжительность: 2:03:13
Источник: скачано с odeonmusic
Наличие сканов в содержимом раздачи: да
Треклист:
CD1
String Quartet No. 2 in A minor Op. 13
1. I. Adagio - Allegro vivace 8:46
2. II. Adagio non lento 7:45
3. III. Intermezzo (Allegretto con moto - Allegro di molto) 4:37
4. IV. Presto - Adagio non lento 9:28
String Quintet No.2 in B flat major Op.87
5. I. Allegro vivace 10:16
6. II. Andante scherzando 4:48
7. III. Adagio e lento 7:57
8. IV. Allegro molto vivace 6:03
CD 2
String Quintet No.1 in A major Op.18
1. I. Allegro con moto 12:19
2. II. Intermezzo: Andante sostenuto 8:06
3. III. Scherzo: Allegro di molto 4:24
4. IV. Allegro vivace 6:45
Octet in E flat major Op. 20
5. I. Allegro moderato, ma con fuoco 14:40
6. II. Andante 6:53
7. III. Scherzo (Allegro leggierissimo) 4:37
8. IV. Presto 5:35
Исполнители:
Hausmusik London:
Monica Huggett, Pavlo Beznosiuk, Paull Boucher, Jolianne Von Einem - violin
Roger Chase, Simon Whistler - viola
Anthony Pleeth, Sebastian Comberti - cello

Лог создания рипа

Лог создания рипа CD1

Exact Audio Copy V1.0 beta 3 from 29. August 2011
EAC extraction logfile from 2. May 2014, 12:06
Hausmusik London / Mendelssohn - Chamber Music for Strings - Hausmusik London (Disc 1)
Used drive : TSSTcorpCDDVDW SH-222BB Adapter: 2 ID: 1
Read mode : Secure
Utilize accurate stream : Yes
Defeat audio cache : Yes
Make use of C2 pointers : No
Read offset correction : 6
Overread into Lead-In and Lead-Out : No
Fill up missing offset samples with silence : Yes
Delete leading and trailing silent blocks : No
Null samples used in CRC calculations : Yes
Used interface : Native Win32 interface for Win NT & 2000
Used output format : User Defined Encoder
Selected bitrate : 896 kBit/s
Quality : High
Add ID3 tag : No
Command line compressor : C:\Program Files\Exact Audio Copy\FLAC\FLAC.EXE
Additional command line options : -8 -V -T "TITLE=%title%" -T "ARTIST=%artist%" -T "ALBUMARTIST=%albumartist%" -T "ALBUM=%albumtitle%" -T "DATE=%year%" -T "TRACKNUMBER=%tracknr%" -T "TRACKTOTAL=%numtracks%" -T "GENRE=%genre%" -T "COMMENT=%comment%" -T "PERFORMER=%albuminterpret%" -T "COMPOSER=%composer%" %source% -o %dest%
TOC of the extracted CD
Track | Start | Length | Start sector | End sector
---------------------------------------------------------
1 | 0:00.00 | 8:47.02 | 0 | 39526
2 | 8:47.02 | 7:45.65 | 39527 | 74466
3 | 16:32.67 | 4:37.65 | 74467 | 95306
4 | 21:10.57 | 9:28.53 | 95307 | 137959
5 | 30:39.35 | 10:16.35 | 137960 | 184194
6 | 40:55.70 | 4:48.27 | 184195 | 205821
7 | 45:44.22 | 7:57.55 | 205822 | 241651
8 | 53:42.02 | 6:04.03 | 241652 | 268954
Range status and errors
Selected range
Filename E:\4000\[4052] Mendelssohn – Chamber Music for Strings – Hausmusik London\cd1\Mendelssohn - Chamber Music for Strings - Hausmusik London (Disc 1).wav
Peak level 99.9 %
Extraction speed 6.9 X
Range quality 100.0 %
Test CRC 3313694F
Copy CRC 3313694F
Copy OK
No errors occurred
AccurateRip summary
Track 1 accurately ripped (confidence 8) [A8A6B71D] (AR v2)
Track 2 accurately ripped (confidence 8) [F003EA3F] (AR v2)
Track 3 accurately ripped (confidence 8) [ADD1E1C8] (AR v2)
Track 4 accurately ripped (confidence 8) [230A772A] (AR v2)
Track 5 accurately ripped (confidence 8) [DAD42294] (AR v2)
Track 6 accurately ripped (confidence 8) [FCFF0271] (AR v2)
Track 7 accurately ripped (confidence 8) [DAC9387D] (AR v2)
Track 8 accurately ripped (confidence 8) [46B13DEA] (AR v2)
All tracks accurately ripped
End of status report
==== Log checksum 3DFF76C7E96A6F615B4F969AD26F4ECB7AA4EBF6BF9987B4D5E9920829AA35B2 ====

Лог создания рипа CD2

Exact Audio Copy V1.0 beta 3 from 29. August 2011
EAC extraction logfile from 2. May 2014, 12:55
Hausmusik London / Mendelssohn - Chamber Music for Strings - Hausmusik London (Disc 2)
Used drive : TSSTcorpCDDVDW SH-222BB Adapter: 2 ID: 1
Read mode : Secure
Utilize accurate stream : Yes
Defeat audio cache : Yes
Make use of C2 pointers : No
Read offset correction : 6
Overread into Lead-In and Lead-Out : No
Fill up missing offset samples with silence : Yes
Delete leading and trailing silent blocks : No
Null samples used in CRC calculations : Yes
Used interface : Native Win32 interface for Win NT & 2000
Used output format : User Defined Encoder
Selected bitrate : 896 kBit/s
Quality : High
Add ID3 tag : No
Command line compressor : C:\Program Files\Exact Audio Copy\FLAC\FLAC.EXE
Additional command line options : -8 -V -T "TITLE=%title%" -T "ARTIST=%artist%" -T "ALBUMARTIST=%albumartist%" -T "ALBUM=%albumtitle%" -T "DATE=%year%" -T "TRACKNUMBER=%tracknr%" -T "TRACKTOTAL=%numtracks%" -T "GENRE=%genre%" -T "COMMENT=%comment%" -T "PERFORMER=%albuminterpret%" -T "COMPOSER=%composer%" %source% -o %dest%
TOC of the extracted CD
Track | Start | Length | Start sector | End sector
---------------------------------------------------------
1 | 0:00.00 | 12:19.20 | 0 | 55444
2 | 12:19.20 | 8:07.10 | 55445 | 91979
3 | 20:26.30 | 4:25.02 | 91980 | 111856
4 | 24:51.32 | 6:46.03 | 111857 | 142309
5 | 31:37.35 | 14:41.02 | 142310 | 208386
6 | 46:18.37 | 6:53.40 | 208387 | 239401
7 | 53:12.02 | 4:37.20 | 239402 | 260196
8 | 57:49.22 | 5:37.63 | 260197 | 285534
Range status and errors
Selected range
Filename E:\4000\[4052] Mendelssohn – Chamber Music for Strings – Hausmusik London\cd2\Mendelssohn - Chamber Music for Strings - Hausmusik London (Disc 2).wav
Peak level 95.2 %
Extraction speed 6.9 X
Range quality 100.0 %
Test CRC 8FBB83D4
Copy CRC 8FBB83D4
Copy OK
No errors occurred
AccurateRip summary
Track 1 accurately ripped (confidence 8) [EA9AAC26] (AR v2)
Track 2 accurately ripped (confidence 8) [A21D4939] (AR v2)
Track 3 accurately ripped (confidence 8) [9AA25903] (AR v2)
Track 4 accurately ripped (confidence 8) [C7C68F82] (AR v2)
Track 5 accurately ripped (confidence 8) [AB12471E] (AR v2)
Track 6 accurately ripped (confidence 8) [738A56F1] (AR v2)
Track 7 accurately ripped (confidence 8) [EFA3F0E9] (AR v2)
Track 8 accurately ripped (confidence 8) [8068280A] (AR v2)
All tracks accurately ripped
End of status report
==== Log checksum B10C404B954C93CB6ABD5D0474EE85637209FA0E0A0AC3D6E55603A709F5C269 ====

Лог проверки качества

Лог проверки качества CD1

AUDIOCHECKER v2.0 beta (build 457) - by Dester - opdester@freemail.hu
~~~~~~~~~~~~~~~~~~~~~~~~~~~~~~~~~~
-=== DO NOT EDIT THIS FILE! ===-
Path: ...\CD1
1 -=- Mendelssohn - Chamber Music for Strings - Hausmusik London (Disc 1).flac -=- CDDA (100%)
155535524

Лог проверки качества CD2

AUDIOCHECKER v2.0 beta (build 457) - by Dester - opdester@freemail.hu
~~~~~~~~~~~~~~~~~~~~~~~~~~~~~~~~~~
-=== DO NOT EDIT THIS FILE! ===-
Path: ...\CD2
1 -=- Mendelssohn - Chamber Music for Strings - Hausmusik London (Disc 2).flac -=- CDDA (100%)
154683556



Показать сообщения:    

Текущее время: 03-Дек 16:47

Часовой пояс: UTC + 3


Вы не можете начинать темы
Вы не можете отвечать на сообщения
Вы не можете редактировать свои сообщения
Вы не можете удалять свои сообщения
Вы не можете голосовать в опросах
Вы не можете прикреплять файлы к сообщениям
Вы не можете скачивать файлы