(Serenata) Moratelli – La Faretra Smarrita / The Lost Quiver (Oswald, Krause, Ruf, Schmid, Steffan, Georg - Salzburger Hofmusik, Brunner) - 2002, APE (image+.cue) lossless


 

[Цитировать]

Sebastiano Moratelli (1640-1706) – La Faretra Smarrita / The Lost Quiver
Жанр: Serenata
Страна-производитель диска: Germany
Год издания диска: 2002
Издатель (лейбл): CPO
Номер по каталогу: 999 851-2
Дата записи: 1998
Аудиокодек: APE
Тип рипа: image+.cue
Битрейт аудио: lossless
Продолжительность: 49'25
Источник: собственный рип
Наличие сканов в содержимом раздачи: да
Треклист:
1 Introduction
2 Aria "Chi avesse trovato"
3 Rec "Cercai di sfera in sfera"
4 Rec "O gran figlio di Giove/Cerchi indarno a queste arene"
5 Aria "Povero misero amor"
6 Rec "Ma come quando e dove la gran dote/Dirò: già stuol di Ninfe"
7 Aria "Superbetto pargoletto"
8 Rec "Deh perche si feroce"
9 Aria "Chi avesse trovato"
10 Rec "Chiedi perle e tesori, Aria Quest’Amor"
11 Rec "De' piu Barbari petti/D’all America ignuda"
12 Aria "Legno sterile plebeo"
13 Rec "Del America ignuda eccoci"
14 Aria "Chi avesse trovato"
15 Rec "Al dio amore"
16 Aria "Lungi dai nostri cor"
17 Rec "O di barbara terra"
18 Aria "Giove a tutti e sempre Giove"
19 Rec "Ogn' amator di te si lagna e duole"
20 Aria "Chi avesse trovato"
21 Aria "Ben venga Amor"
22 Rec "Ma del turgasso aurato"
23 Rec "Misero dove mi volgero"
24 Tutti "Allegrezza/ Aria Amor più vago"
25 Aria "Il candore di volto si vago"
26 Aria "Tanta grazia ha il bel sembiante"
27 Rec "Oggi quest'oggi appunto"
28 Rec "Tuoi facondi cinabri"
29 Tutti "Viva si lieto di"
Исполнители:
Sebastiano Moratelli (1640-1706) – La Faretra Smarrita (The Lost Quiver)
Mercurio - Hermann Oswald (tenor)
Amore - Verena Krause (soprano)
Africano - Thomas Ruf (basso)
Asiatico - Günther Schmid (altus)
Americo - Martin Steffan (tenor)
Europea - Rufus Müller (tenor)
Echo - Tissi Georg (soprano)
Salzburger Hofmusik
Wolfgang Brunner

Лог создания рипа

Exact Audio Copy V1.0 beta 3 from 29. August 2011
EAC extraction logfile from 16. June 2013, 5:09
Moratelli / La Faretra Smarrita, Brunner 1998
Used drive : TSSTcorpCDDVDW SE-208AB Adapter: 1 ID: 0
Read mode : Secure
Utilize accurate stream : Yes
Defeat audio cache : Yes
Make use of C2 pointers : No
Read offset correction : 6
Overread into Lead-In and Lead-Out : No
Fill up missing offset samples with silence : Yes
Delete leading and trailing silent blocks : No
Null samples used in CRC calculations : Yes
Used interface : Native Win32 interface for Win NT & 2000
Used output format : Monkey's Audio Lossless Encoder
Selected bitrate : High Lossless Compression
Quality : High
Add ID3 tag : Yes
Command line compressor : K:\Program Files (x86)\Exact Audio Copy\Monkeys Audio\Monkey's Audio\MAC.exe
Additional command line options : -6 -V -T "ARTIST=%artist%" -T "TITLE=%title%" -T "ALBUM=%albumtitle%" -T "DATE=%year%" -T "TRACKNUMBER=%tracknr%" -T "GENRE=%genre%" -T "COMMENT=%comment%" -T "BAND=%albuminterpret%" -T "ALBUMARTIST=%albuminterpret%" -T "COMPOSER=%composer%" %haslyrics%--tag-from-file=LYRICS="%lyricsfile%"%haslyrics% -T "DISCNUMBER=%cdnumber%" -T "TOTALDISCS=%totalcds%" -T "TOTALTRACKS=%numtracks%" %hascover%--picture="%coverfile%"%hascover% %source% -o %dest%
TOC of the extracted CD
Track | Start | Length | Start sector | End sector
---------------------------------------------------------
1 | 0:00.00 | 1:27.72 | 0 | 6596
2 | 1:27.72 | 0:55.49 | 6597 | 10770
3 | 2:23.46 | 0:50.15 | 10771 | 14535
4 | 3:13.61 | 2:54.47 | 14536 | 27632
5 | 6:08.33 | 2:35.39 | 27633 | 39296
6 | 8:43.72 | 2:17.32 | 39297 | 49603
7 | 11:01.29 | 1:16.54 | 49604 | 55357
8 | 12:18.08 | 1:25.28 | 55358 | 61760
9 | 13:43.36 | 0:55.72 | 61761 | 65957
10 | 14:39.33 | 2:45.67 | 65958 | 78399
11 | 17:25.25 | 0:59.42 | 78400 | 82866
12 | 18:24.67 | 1:59.18 | 82867 | 91809
13 | 20:24.10 | 0:26.43 | 91810 | 93802
14 | 20:50.53 | 0:57.10 | 93803 | 98087
15 | 21:47.63 | 0:56.17 | 98088 | 102304
16 | 22:44.05 | 3:13.59 | 102305 | 116838
17 | 25:57.64 | 1:23.61 | 116839 | 123124
18 | 27:21.50 | 1:30.08 | 123125 | 129882
19 | 28:51.58 | 2:26.42 | 129883 | 140874
20 | 31:18.25 | 0:56.04 | 140875 | 145078
21 | 32:14.29 | 2:21.20 | 145079 | 155673
22 | 34:35.49 | 0:09.44 | 155674 | 156392
23 | 34:45.18 | 5:10.00 | 156393 | 179642
24 | 39:55.18 | 2:32.24 | 179643 | 191066
25 | 42:27.42 | 1:24.53 | 191067 | 197419
26 | 43:52.20 | 1:49.53 | 197420 | 205647
27 | 45:41.73 | 0:54.20 | 205648 | 209717
28 | 46:36.18 | 1:12.38 | 209718 | 215155
29 | 47:48.56 | 1:37.01 | 215156 | 222431
Range status and errors
Selected range
Filename I:\Foobar-EAC\Moratelli - La Faretra Smarrita, Brunner 1998.wav
Peak level 94.9 %
Extraction speed 1.8 X
Range quality 99.9 %
Test CRC A742DC94
Copy CRC A742DC94
Copy OK
No errors occurred
AccurateRip summary
Track 1 not present in database
Track 2 not present in database
Track 3 not present in database
Track 4 not present in database
Track 5 not present in database
Track 6 not present in database
Track 7 not present in database
Track 8 not present in database
Track 9 not present in database
Track 10 not present in database
Track 11 not present in database
Track 12 not present in database
Track 13 not present in database
Track 14 not present in database
Track 15 not present in database
Track 16 not present in database
Track 17 not present in database
Track 18 not present in database
Track 19 not present in database
Track 20 not present in database
Track 21 not present in database
Track 22 not present in database
Track 23 not present in database
Track 24 not present in database
Track 25 not present in database
Track 26 not present in database
Track 27 not present in database
Track 28 not present in database
Track 29 not present in database
None of the tracks are present in the AccurateRip database
End of status report
==== Log checksum 2A688B65593486BF7648C680B63C7F95E1DE4FAB3CDAA2807FD85779C5DB7D7F ====

Содержание индексной карты (.CUE)

REM GENRE Opera
REM DATE 1998
REM DISCID AB0B951D
REM COMMENT "ExactAudioCopy v1.0b3"
PERFORMER " Moratelli"
TITLE "La Faretra Smarrita, Brunner 1998"
FILE "Moratelli - La Faretra Smarrita, Brunner 1998.ape" WAVE
TRACK 01 AUDIO
TITLE "Introduction"
PERFORMER " Moratelli"
INDEX 01 00:00:00
TRACK 02 AUDIO
TITLE "Chi avesse trovato"
PERFORMER " Moratelli"
INDEX 01 01:27:72
TRACK 03 AUDIO
TITLE "Cercai di sfera in sfera"
PERFORMER " Moratelli"
INDEX 01 02:23:46
TRACK 04 AUDIO
TITLE "O gran figlio di Giove"
PERFORMER " Moratelli"
INDEX 01 03:13:61
TRACK 05 AUDIO
TITLE "Povero misero amor"
PERFORMER " Moratelli"
INDEX 01 06:08:33
TRACK 06 AUDIO
TITLE "Ma come quando e dove la gran dote"
PERFORMER " Moratelli"
INDEX 01 08:43:72
TRACK 07 AUDIO
TITLE "Superbetto pargoletto"
PERFORMER " Moratelli"
INDEX 01 11:01:29
TRACK 08 AUDIO
TITLE "Deh perchè si feroce"
PERFORMER " Moratelli"
INDEX 01 12:18:08
TRACK 09 AUDIO
TITLE "Chi avesse trovato"
PERFORMER " Moratelli"
INDEX 01 13:43:36
TRACK 10 AUDIO
TITLE "Chiedi perle e tesori"
PERFORMER " Moratelli"
INDEX 01 14:39:33
TRACK 11 AUDIO
TITLE "De' piu Barbari petti"
PERFORMER " Moratelli"
INDEX 01 17:25:25
TRACK 12 AUDIO
TITLE "Legno sterile plebeo"
PERFORMER " Moratelli"
INDEX 01 18:24:67
TRACK 13 AUDIO
TITLE "Del America ignuda eccoci"
PERFORMER " Moratelli"
INDEX 01 20:24:10
TRACK 14 AUDIO
TITLE "Chi avesse trovato"
PERFORMER " Moratelli"
INDEX 01 20:50:53
TRACK 15 AUDIO
TITLE "Al dio amore"
PERFORMER " Moratelli"
INDEX 01 21:47:63
TRACK 16 AUDIO
TITLE "Lungi dai nostri cor"
PERFORMER " Moratelli"
INDEX 01 22:44:05
TRACK 17 AUDIO
TITLE "O di barbara terra"
PERFORMER " Moratelli"
INDEX 01 25:57:64
TRACK 18 AUDIO
TITLE "Giove a tutti é sempre"
PERFORMER " Moratelli"
INDEX 01 27:21:50
TRACK 19 AUDIO
TITLE "Ogn' amator di si lagna e duole"
PERFORMER " Moratelli"
INDEX 01 28:51:58
TRACK 20 AUDIO
TITLE "Chi avesse trovato"
PERFORMER " Moratelli"
INDEX 01 31:18:25
TRACK 21 AUDIO
TITLE "Ben venga Amor"
PERFORMER " Moratelli"
INDEX 01 32:14:29
TRACK 22 AUDIO
TITLE "Ma del turgasso aurato"
PERFORMER " Moratelli"
INDEX 01 34:35:49
TRACK 23 AUDIO
TITLE "Misero dove mi volgerò"
PERFORMER " Moratelli"
INDEX 01 34:45:18
TRACK 24 AUDIO
TITLE "Allegrezza"
PERFORMER " Moratelli"
INDEX 01 39:55:18
TRACK 25 AUDIO
TITLE "Il candore di volto si vago"
PERFORMER " Moratelli"
INDEX 01 42:27:42
TRACK 26 AUDIO
TITLE "Tanta grazia ha il bel sembiante"
PERFORMER " Moratelli"
INDEX 01 43:52:20
TRACK 27 AUDIO
TITLE "Oggi quest' oggi appunto"
PERFORMER " Moratelli"
INDEX 01 45:41:73
TRACK 28 AUDIO
TITLE "Tuoi facondi cinabri"
PERFORMER " Moratelli"
INDEX 01 46:36:18
TRACK 29 AUDIO
TITLE "Viva si lieto di"
PERFORMER " Moratelli"
INDEX 01 47:48:56
Доп. информация:
Not much is known about Sebastiano Moratelli’s life, and his entire oeuvre, which is supposed to have included a number of operas and serenades, until recently was thought to have been lost.
The rediscovery of the score of La “faretra smarrita” in the library of the Counts of Toerring-Jettenbach therefore amounts to a sensation.
It finally allows us to form an impression of Moratelli’s compositional capabilities in their mature stage and of the “expressive power and naturalness” of his music so greatly esteemed by his contemporaries.
Moratelli, who came from Italy to Vienna before 1660, served as imperial chamber music director and music teacher to the Archduchess Anna Maria Josepha.
On her marriage to Johann Wilhelm, Moratelli went along to Düsseldorf in 1679 and remained a member of the court there until his death.
Only the libretti of his operas remain extant, and they were written by Johann Wilhelm’s secretary Giorgio Maria Rapparini.
It is also to Rapparini that we owe a large part of the little information that we have about the composer’s life.
Rapparini may perhaps also have been the librettist of “La faretra smarrita”.
Since no printed libretto for the serenata has been transmitted to us (as is often the case in this genre) and Rapparini himself does not mention the work in a manuscript extant in Düsseldorf, his authorship of the work must remain a hypothesis.
Moratelli could look back on a career extending over almost fifty years when he finally requested that he be relieved of his duties as court music director.
He then retired to Heidelberg, where he died in 1706.
Енёы!!



Показать сообщения:    

Текущее время: 05-Дек 05:32

Часовой пояс: UTC + 3


Вы не можете начинать темы
Вы не можете отвечать на сообщения
Вы не можете редактировать свои сообщения
Вы не можете удалять свои сообщения
Вы не можете голосовать в опросах
Вы не можете прикреплять файлы к сообщениям
Вы не можете скачивать файлы