Кинематограф мести / Герои кинематографа / Cinema of Vengeance (Тоби Расселл / Toby Russell) [1994, Гонконг, документальный, боевые искусства, VHSRip] AVO


Статистика раздачи [Обновить пиров]
Размер:  742 MB   |    Зарегистрирован:  8 месяцев 16 дней   |    Скачан:  0 раз

Полного источника не было: Никогда

Личеров:  7  [  0 KB/s  ]   Подробная статистика пиров
 
   
 
 
 

[Цитировать]

Кинематограф мести/Герои кинематографа/Cinema of Vengeance
Страна: Гонконг
Жанр: документальный,боевые искусства
Год выпуска: 1994
Продолжительность: 01:31:06

Перевод:Профессиональный (одноголосый закадровый)
Cубтитры: Редкие английские
Режиссер: Тоби Расселл/Toby Russell

В ролях: Кван Так-Хинг, Джимми Ванг Ю, Лау Кар Люнг,Чан Вай Ман, Брюс Ли, Брюс Лай, Картер Вонг, Джеки Чан, Юэнь Ву-Пинг, Гэри Дэниелс, Луис Ротт, Саммо Хунг Кам-Бо, Джо Льюис, Гордон Лю Ча Хи,
Ти Лунг,Менахем Голан,Стив Джеймс, Майк Келли, Дон «Дракон» Уилсон, Синтия Ротрок, Софи Кроуфорд, Ошима Юкари, Кирк Вонг, Чоу Юнь-Фат,Джон Ву,Жан-Клод Ван Дамм,Ланс Хенриксен, Саймон Ям,
Донни Йен, Юэнь Бияо, Эд Кхмара, Рой Макэри

Описание: Интервью с известными актерами,режиссерами и боевыми сценами из гонконгских боевиков!
Доп. информация: Рип с кассеты из домашней коллекции(могу раздавать с 9:00-21:00 по московскому времени)
Сэмпл: http://multi-up.com/986990
Качество видео: VHSRip
Формат видео: AVI
Видео: Xvid 624x480,25fps,1001kbps,0.13bit/pixel
Аудио: MP3 48000Hz stereo 128kbps

MediaInfo

General
Complete name : H:\555\Герои кинематографа 1994.avi
Format : AVI
Format/Info : Audio Video Interleave
File size : 742 MiB
Duration : 1h 31mn
Overall bit rate : 1 139 Kbps
Writing application : VirtualDubMod 1.5.10.2 (build 2540/release)
Writing library : VirtualDubMod build 2540/release
Video
ID : 0
Format : MPEG-4 Visual
Format profile : Advanced Simple@L5
Format settings, BVOP : Yes
Format settings, QPel : No
Format settings, GMC : No warppoints
Format settings, Matrix : Default (MPEG)
Codec ID : XVID
Codec ID/Hint : XviD
Duration : 1h 31mn
Bit rate : 1 001 Kbps
Width : 624 pixels
Height : 480 pixels
Display aspect ratio : 4:3
Frame rate : 25.000 fps
Color space : YUV
Chroma subsampling : 4:2:0
Bit depth : 8 bits
Scan type : Progressive
Compression mode : Lossy
Bits/(Pixel*Frame) : 0.134
Stream size : 653 MiB (88%)
Writing library : XviD 1.2.1 (UTC 2008-12-04)
Audio
ID : 1
Format : MPEG Audio
Format version : Version 1
Format profile : Layer 3
Codec ID : 55
Codec ID/Hint : MP3
Duration : 1h 31mn
Bit rate mode : Constant
Bit rate : 128 Kbps
Channel(s) : 2 channels
Sampling rate : 48.0 KHz
Compression mode : Lossy
Stream size : 83.4 MiB (11%)
Alignment : Aligned on interleaves
Interleave, duration : 40 ms (1.00 video frame)
Interleave, preload duration : 504 ms
Writing library : LAME3.98r
Encoding settings : -m s -V 4 -q 2 -lowpass 17 -b 128

Скриншот c названием фильма

Скриншоты

[teatrix.ru].t18904.torrent 
Торрент: Зарегистрирован [ 2016-03-18 12:19 ] · E1DDB18A9ADA032129009B1A95FEDE40DB2B2560

Скачать .torrent

Скачать

15 KB

Статус: проверено
Скачан: 0 раз
Размер: 742 MB
terms.php



Показать сообщения:    

Текущее время: 04-Дек 04:51

Часовой пояс: UTC + 3


Вы не можете начинать темы
Вы не можете отвечать на сообщения
Вы не можете редактировать свои сообщения
Вы не можете удалять свои сообщения
Вы не можете голосовать в опросах
Вы не можете прикреплять файлы к сообщениям
Вы можете скачивать файлы