(Classical, folk) Emilia Amper - Trollfageln (The Magic Bird) - Emilia Amper, Johan Hedin, Anders Lofberg, Dan Svensson, Olle Linder, Helge Andreas Norbakken - 2012, FLAC (image+.cue) lossless


 

[Цитировать]

Emilia Amper - Trollfågeln (The Magic Bird) - Emilia Amper, Johan Hedin, Anders Löfberg, Dan Svensson, Olle Linder, Helge Andreas Norbakken
Жанр: Classical, folk
Страна-производитель диска: Sweden
Год издания диска: 2012
Издатель (лейбл): BIS
Номер по каталогу: BIS-SACD-2013
Дата записи: 2012
Аудиокодек: FLAC
Тип рипа: image+.cue
Битрейт аудио: lossless
Продолжительность: 59:42
Источник: собственный рип
Наличие сканов в содержимом раздачи: да
Треклист:
Traditional and new Nordic folk music arranged and composed by
Emilia Amper
1] Till Maria
[2] G-mollpolska efter Anders Gustaf Jernberg
[3] Ut i mörka natten
[4] Isadoras land
[5] Trollfuglen
[6] Polska fra Hoffsmyran
[7] Herr Lager och skön fager
[8] Brännvinslåt från Torsås
[9] Pigopolskan / Den glömda polskan
[10] När som flickorna de gifta sig
[11] Kapad
[12] Bredals Näckapolska
[13] Galatea Creek
[14] Vals från Valsebo
Исполнители:
Emilia Amper nyckelharpa, vocal
Johan Hedin nyckelharpa
Anders Löfberg cello
Dan Svensson percussion, guitar, vocal
Olle Linder percussion, guitar
Helge Andreas Norbakken percussion
Strings from Trondheim Soloists

Лог создания рипа

Exact Audio Copy V1.0 beta 3 from 29. August 2011
EAC extraction logfile from 13. April 2014, 2:10
Emilia Amper / Emilia Amper - Trollfuglen (The Magic Bird)
Used drive : HL-DT-STDVDRAM GSA-4083N Adapter: 1 ID: 0
Read mode : Secure
Utilize accurate stream : Yes
Defeat audio cache : Yes
Make use of C2 pointers : No
Read offset correction : 667
Overread into Lead-In and Lead-Out : No
Fill up missing offset samples with silence : Yes
Delete leading and trailing silent blocks : No
Null samples used in CRC calculations : Yes
Used interface : Native Win32 interface for Win NT & 2000
Used output format : User Defined Encoder
Selected bitrate : 896 kBit/s
Quality : High
Add ID3 tag : No
Command line compressor : C:\Program Files\Exact Audio Copy\Flac\flac.exe
Additional command line options : -V -8 %source%
TOC of the extracted CD
Track | Start | Length | Start sector | End sector
---------------------------------------------------------
1 | 0:00.00 | 5:01.32 | 0 | 22606
2 | 5:01.32 | 3:27.25 | 22607 | 38156
3 | 8:28.57 | 4:57.59 | 38157 | 60490
4 | 13:26.41 | 3:53.02 | 60491 | 77967
5 | 17:19.43 | 2:25.49 | 77968 | 88891
6 | 19:45.17 | 4:04.07 | 88892 | 107198
7 | 23:49.24 | 3:11.62 | 107199 | 121585
8 | 27:01.11 | 2:42.42 | 121586 | 133777
9 | 29:43.53 | 5:10.18 | 133778 | 157045
10 | 34:53.71 | 4:10.07 | 157046 | 175802
11 | 39:04.03 | 4:46.63 | 175803 | 197315
12 | 43:50.66 | 3:01.60 | 197316 | 210950
13 | 46:52.51 | 3:21.37 | 210951 | 226062
14 | 50:14.13 | 9:28.59 | 226063 | 268721
Range status and errors
Selected range
Filename J:\New Music\BIS-SACD-2013 - Emilia Amper - Trollfageln\Emilia Amper - Trollfuglen.wav
Peak level 99.9 %
Extraction speed 2.5 X
Range quality 99.9 %
Test CRC 10300562
Copy CRC 10300562
Copy OK
No errors occurred
AccurateRip summary
Track 1 accurately ripped (confidence 2) [4714DFF0] (AR v2)
Track 2 accurately ripped (confidence 2) [936635AB] (AR v2)
Track 3 accurately ripped (confidence 2) [70EE5377] (AR v2)
Track 4 accurately ripped (confidence 2) [3B4CF7FE] (AR v2)
Track 5 accurately ripped (confidence 2) [54E4BE95] (AR v2)
Track 6 accurately ripped (confidence 2) [C0143306] (AR v2)
Track 7 accurately ripped (confidence 2) [2FEC1095] (AR v2)
Track 8 accurately ripped (confidence 2) [C5053C17] (AR v2)
Track 9 accurately ripped (confidence 2) [0C1996E7] (AR v2)
Track 10 accurately ripped (confidence 2) [FABB9EE1] (AR v2)
Track 11 accurately ripped (confidence 2) [70AA10FC] (AR v2)
Track 12 accurately ripped (confidence 2) [F58FC6A8] (AR v2)
Track 13 accurately ripped (confidence 2) [881883A3] (AR v2)
Track 14 accurately ripped (confidence 2) [C16A563E] (AR v2)
All tracks accurately ripped
End of status report
==== Log checksum EE76307F4201FC1A02F44A2A66DA70C7FC8E1A02C7052EBE421CD392D5C153F9 ====



Показать сообщения:    

Текущее время: 09-Дек 03:01

Часовой пояс: UTC + 3


Вы не можете начинать темы
Вы не можете отвечать на сообщения
Вы не можете редактировать свои сообщения
Вы не можете удалять свои сообщения
Вы не можете голосовать в опросах
Вы не можете прикреплять файлы к сообщениям
Вы не можете скачивать файлы