«Актуальное интервью» с певицей Таисией Повалий (14.07.2014) [2014 г., Ток-Шоу, DVB]


Статистика раздачи [Обновить пиров]
Размер:  214 MB   |    Зарегистрирован:  8 месяцев 16 дней   |    Скачан:  0 раз

Полного источника не было: Никогда

Личеров:  6  [  0 KB/s  ]   Подробная статистика пиров
 
   
 
 
 

[Цитировать]

«Актуальное интервью» с певицей Таисией Повалий (14.07.2014)
Страна: Беларусь
Жанр: Ток-Шоу
Продолжительность: 00:13:15
Язык: Русский
Год выпуска: 2014 г.
Выпущено: Россия, Телеканал "Беларусь".
Описание: «Славянский базар» открыл для Таисии Повалий путь на большую эстраду.
Обладательница первого Гран-при конкурса обрела вместе с музыкальной наградой и свою любовь, теперь народная артистка Украины и Ингушетии Таисия Повалий открывает свои концерты только конкурсной песней "Славянского базара" 1993 года, а гастроли по Беларуси артистка совмещает с экскурсиями и отдыхом в наших санаториях. Как певица променяла оперу на песни популярного жанра и шансон, смотрите в «Актуальном интервью».
Эфир от 14.07.2014
Смотреть онлайн: «Актуальное интервью» с певицей Таисией Повалий (14.07.2014)
Сэмпл: https://yadi.sk/i/X3IRHEh3WrvZm
Источник: Собственный рип
Доп. информация: Рип чистый. Без посторонних надписей. Выкладывается как есть.

Качество: DVB
Контейнер: MPEG-PS
Видео кодек: MPEG2
Аудио кодек: MPEG1
Видео: MPEG2 720x576 (4:3) 25.000fps 2 261 Kbps, 0.195 bit/pixel
Аудио: MPEG1 48000Hz stereo 192 Кбит/сек

Скриншоты

MediaInfo

Общее
Полное имя : F:\Компьютер\Таисия Повалий\Канал Ютуб\Клипы +\Канал ЮТУБА\Актуальное интервью - 2014\Актуальное интервью с певицей Таисией Повалий (2014, DVB, Телеканал Беларусь, 14.07.2014).mpg
Формат : MPEG-PS
Размер файла : 214 Мбайт
Продолжительность : 13 м.
Режим общего битрейта : Переменный
Общий поток : 2261 Кбит/сек
Видео
Идентификатор : 224 (0xE0)
Формат : MPEG Video
Версия формата : Version 2
Профиль формата : Main@Main
Параметр BVOP формата : Нет
Параметр матрицы формата : По умолчанию
Параметр GOP формата : N=12
Продолжительность : 13 м.
Вид битрейта : Переменный
Битрейт : 2024 Кбит/сек
Максимальный битрейт : 9000 Кбит/сек
Ширина : 720 пикселей
Высота : 576 пикселей
Соотношение сторон : 4:3
Частота кадров : 25,000 кадров/сек
Стандарт вещания : PAL
Цветовое пространство : YUV
Субдискретизация насыщенности : 4:2:0
Битовая глубина : 8 бит
Тип развёртки : Прогрессивная
Метод сжатия : С потерями
Бит/(Пиксели*Кадры) : 0.195
Временной код первого кадра : 00:00:00:00
Оригинал временного кода : Group of pictures header
Размер потока : 192 Мбайт (90%)
Аудио
Идентификатор : 192 (0xC0)
Формат : MPEG Audio
Версия формата : Version 1
Профиль формата : Layer 2
Продолжительность : 13 м.
Вид битрейта : Постоянный
Битрейт : 192 Кбит/сек
Каналы : 2 канала
Частота : 48,0 КГц
Метод сжатия : С потерями
Размер потока : 18,2 Мбайт (8%)

[teatrix.ru].t18907.torrent 
Торрент: Зарегистрирован [ 2016-03-18 12:19 ] · 19187CF0EF4A502E3499F0F69D2A7F645648AE88

Скачать .torrent

Скачать

17 KB

Статус: проверено
Скачан: 0 раз
Размер: 214 MB
terms.php



Быстрый ответ

Имя:

      
Для отправки сообщений необходимо включить JavaScript
Показать сообщения:    

Текущее время: 04-Дек 06:48

Часовой пояс: UTC + 3


Вы можете начинать темы
Вы можете отвечать на сообщения
Вы не можете редактировать свои сообщения
Вы не можете удалять свои сообщения
Вы не можете голосовать в опросах
Вы не можете прикреплять файлы к сообщениям
Вы можете скачивать файлы