(Classical) Alison Balsom & Quentin Thomas - Music for Trumpet and Organ (Sweelinck. Variations; J.S. Bach. Partita II; Purcell. King Arthur; Tomasi. Semaine Sainte a Cuzco; Messiaen. Vocalise-Etude; Eben...) - 2002, FLAC (image+.cue) lossless


 

[Цитировать]

Alison Balsom & Quentin Thomas - Music for Trumpet and Organ (Sweelinck - Variations; J.S. Bach - Partita II; Purcell - King Arthur; Tomasi - Semaine Sainte a Cuzco; Messiaen - Vocalise-Etude; Eben - Windows)
Жанр: Classical
Год издания диска: 2002
Издатель (лейбл): EMI Classics
Номер по каталогу: 7243 5 75683 2 6
Аудиокодек: FLAC
Тип рипа: image+.cue
Битрейт аудио: lossless
Продолжительность: 57:44
Источник: скачано из сети
Наличие сканов в содержимом раздачи: да
Треклист:
1. Jan Pieterszoon Sweelinck - Variations on/Variationen über/Variations sur “Mein junges Leben hat ein End” 6:16
2. Johann Sebastian Bach - Allemande from/aus/de Partita II, BWV 1004 4:59
Musike from/aus/de “King Arthur”
3. Henry Purcell - 1. Trumpet Tune 0:50
4. 2. Symphony 2:00
5. 3. Song Tune 1 “Round Thy Shores” 1:36
6. 4. Warlike Consort 1:07
7. Shenandoah 2:42
8. Elegy 3:47
9. Henri Tomasi - Semaine Sainte a Cuzco 6:09
10. Olivier Messiaen - Vocalise-Étude, pour voix élevées 4:47
Okna, podle Marca Chagalla (Windows, after Marc Chagall / Fenster, nach Marc Chagall / Fenêtres, d’après Marc Chagall)
11. Petr Eben - 1. Modré Okno (The Blue Window / Das blaue Fenster / La Fenêtre bleue) - Con moto persistente 4:31
12. 2. Zelené Okno (The Green Window / Das grüne Fenster / La Fenêtre verte) - Andantino pastorale 6:29
13. 3. Červené Okno (The Red Window / Das rote Fenster / La Fenêtre Rouge) - Risoluto e drammatico 6:00
14. 4. Zlaté Okno (The Gold Window / Das goldene Fenster / La Fenêtre d’or) - Festivo 6:32
Исполнители:
Flugelhorn – Alison Balsom (tracks: 7, 8)
Organ – Quentin Thomas (tracks: 1, 3 to 14)
Trumpet – Alison Balsom (tracks: 1, 2, 9, 10, 11 to 14)
Trumpet [Natural] – Alison Balsom (tracks: 3 to 6)
Trumpet [Piccolo] – Alison Balsom (tracks: 9)

LOG EAC

Exact Audio Copy V1.0 beta 3 from 29. August 2011
EAC extraction logfile from 27. August 2013, 10:40
Alison Balsom and Quentin Thomas / Music for Trumpet and Organ
Used drive : PIONEER BD-RW BDR-206 Adapter: 0 ID: 2
Read mode : Secure
Utilize accurate stream : Yes
Defeat audio cache : Yes
Make use of C2 pointers : No
Read offset correction : 667
Overread into Lead-In and Lead-Out : No
Fill up missing offset samples with silence : Yes
Delete leading and trailing silent blocks : No
Null samples used in CRC calculations : Yes
Used interface : Native Win32 interface for Win NT & 2000
Used output format : User Defined Encoder
Selected bitrate : 1024 kBit/s
Quality : High
Add ID3 tag : Yes
Command line compressor : C:\Program Files\FLAC\flac.exe
Additional command line options : -5 -T "Artist=%artist%" -T "Title=%title%" -T "Album=%albumtitle%" -T "Date=%year%" -T "Tracknumber=%tracknr%" -T "Genre=%genre%" %source% -o %dest%
TOC of the extracted CD
Track | Start | Length | Start sector | End sector
---------------------------------------------------------
1 | 0:00.00 | 6:16.07 | 0 | 28206
2 | 6:16.07 | 4:58.65 | 28207 | 50621
3 | 11:14.72 | 0:50.25 | 50622 | 54396
4 | 12:05.22 | 1:59.38 | 54397 | 63359
5 | 14:04.60 | 1:35.62 | 63360 | 70546
6 | 15:40.47 | 1:06.73 | 70547 | 75569
7 | 16:47.45 | 2:41.50 | 75570 | 87694
8 | 19:29.20 | 3:47.10 | 87695 | 104729
9 | 23:16.30 | 6:08.42 | 104730 | 132371
10 | 29:24.72 | 4:47.33 | 132372 | 153929
11 | 34:12.30 | 4:30.55 | 153930 | 174234
12 | 38:43.10 | 6:29.17 | 174235 | 203426
13 | 45:12.27 | 6:00.25 | 203427 | 230451
14 | 51:12.52 | 6:32.13 | 230452 | 259864
Range status and errors
Selected range
Filename F:\=== VINYL RIPS ===\=== EAC===\X FRESH RIP\Alison Balsom and Quentin Thomas - Music for Trumpet and Organ.wav
Peak level 98.8 %
Extraction speed 7.2 X
Range quality 100.0 %
Copy CRC D81E05EC
Copy OK
No errors occurred
AccurateRip summary
Track 1 accurately ripped (confidence 6) [BA37C7FE] (AR v2)
Track 2 accurately ripped (confidence 6) [CDDEA41E] (AR v2)
Track 3 accurately ripped (confidence 6) [C7A5C61A] (AR v2)
Track 4 accurately ripped (confidence 6) [6DAA561C] (AR v2)
Track 5 accurately ripped (confidence 6) [F32E51DD] (AR v2)
Track 6 accurately ripped (confidence 6) [60031375] (AR v2)
Track 7 accurately ripped (confidence 6) [74170678] (AR v2)
Track 8 accurately ripped (confidence 6) [5B9D012A] (AR v2)
Track 9 accurately ripped (confidence 6) [63256F02] (AR v2)
Track 10 accurately ripped (confidence 6) [71342551] (AR v2)
Track 11 accurately ripped (confidence 6) [FAD8A3A0] (AR v2)
Track 12 accurately ripped (confidence 6) [5398510D] (AR v2)
Track 13 accurately ripped (confidence 6) [63E519D7] (AR v2)
Track 14 accurately ripped (confidence 6) [000E4275] (AR v2)
All tracks accurately ripped
End of status report
---- CUETools DB Plugin V2.1.3
[CTDB TOCID: .2AyP6KXWHBM2QyscgqCz3Yawt4-] found, Submit result: .2AyP6KXWHBM2QyscgqCz3Yawt4- has been confirmed
[58474f11] (17/17) Accurately ripped
==== Log checksum BDA1A306C881B5F605BEA0FB17672DC53557544A1583E99617DBC4AB73EAD8F1 ====
mp3



Показать сообщения:    

Текущее время: 04-Дек 13:06

Часовой пояс: UTC + 3


Вы не можете начинать темы
Вы не можете отвечать на сообщения
Вы не можете редактировать свои сообщения
Вы не можете удалять свои сообщения
Вы не можете голосовать в опросах
Вы не можете прикреплять файлы к сообщениям
Вы не можете скачивать файлы