(Oratorio/Masque) Handel - Messiah HWV 56, Acis and Galatea HWV 49a - Sutherland, Bumbry, McKellar, Ward, Pears, Brannigan, Galliver, Boult - 2011, APE (image+.cue) lossless


Статистика раздачи [Обновить пиров]
Размер:  1.26 GB   |    Зарегистрирован:  8 месяцев 15 дней   |    Скачан:  0 раз

Полного источника не было: Никогда

Личеров:  9  [  0 KB/s  ]   Подробная статистика пиров
 
   
 
 
 

[Цитировать]

George Frideric HandelMessiah
London Symphony Chorus & London Symphony Orchestra
Acis and Galatea
St. Anthony Singers & Philomusica of London
Adrian Boult


Жанр: Oratorio/Masque
Страна-производитель диска: Australia
Год издания диска: 2011
Издатель (лейбл): Decca Eloquence
Номер по каталогу: 480 4924
Дата записи: 1959-1961
Аудиокодек: APE
Тип рипа: image+.cue
Битрейт аудио: lossless
Продолжительность: 257.15
Источник: собственный рип
Наличие сканов в содержимом раздачи: да
Исполнители:
Messiah
Joan Sutherland (soprano), Grace Bumbry (alto), Kenneth McKellar (tenor) & David Ward (bass)
London Symphony Chorus & London Symphony Orchestra
Acis and Galatea
Joan Sutherland, soprano (Galatea), Sir Peter Pears, tenor (Acis), Owen Brannigan, bass (Polyphemus) & David Galliver, tenor (Damon)
St. Anthony Singers & Philomusica of London
conductor - Sir Adrian Boult
BONUS:
I rage, I melt, I burn…O ruddier than the cherry (from Acis and Galatea) Alternative aria - Owen Brannigan (bass)
Messiah: Thy Rebuke Hath Broken His Heart...Behold And See Alternative recitative/arioso - Kenneth McKellar (tenor)
P.S. Messiah такой же как здесь

ТреклистDISC 1

Handel: Messiah, HWV 56
1. Overture
2. Recitative. Comfort Ye My People
3. Aria. Every Valley Shall Be Exalted
4. Chorus. And The Glory Of The Lord
5. Recitative. Thus Saith The Lord
6. Aria. But Who May Abide The Day Of His Coming?
7. Chorus. And He Shall Purify
8. Recitative. Behold, A Virgin Shall Conceive
9. Recitative. For, Behold, A Darkness Shall Cover the Earth
10. Aria. The People That Walked In Darkness
11. Chorus. For Unto Us A Child Is Born
12. Pastoral Symphony
13. Recitative. There Were Shepherds Abiding In The Field
14. Chorus. Glory to God
15. Aria. Rejoice Greatly, O Daughter Of Zion
16. Recitative. Then Shall The Eyes… He shall feed
17. Chorus. His Yoke Is Easy, And His Burthen Is Light

DISC 2

1. Chorus. Behold The Lamb Of God
2. Aria. He Was Despised
3. Chorus. Surely He Hath Borne Our Griefs
4. Chorus. And With His Stripes We Are Healed
5. Chorus. All We Like Sheep Have Gone Astray
6. Recitative & Chorus: All they that see him.. He trusted in God
7. Recitative. Thy Rebuke Hath Broken His Heart
8. Arioso. Behold, And See If There Be Any Sorrow
9. Recitative and Air: He was cut off..But thour didst not leave
10. Chorus. Lift Up Your Heads, O Ye Gates
11. Recitative & Chorus: unto which of the angels...Let all the angels of God
12. Air: Thou art gone up on high
13. Chorus: The Lord gave the word
14. Aria. How Beautiful Are The Feet Of Them
15. Chorus. Their Sound Is Gone Out Into All Lands
16. Aria. Why Do The Nations So Furiously Rage
17. Chorus. Let Us Break Their Bonds Asunder
18. Recitative & Air: He that dwelleth in heaven..Thou shalt break them
19. Chorus. Hallelujah!

DISC 3

1. Aria. I Know That My Redeemer Liveth
2. Chorus. Since By Man Came Death
3. Recitative & Air: Behold, I Tell You A Mystery… The trumpet shall sound
4. Recitiative, Duet & Chorus: Then shall be brought…
5. Aria. If God Be For Us, Who Can Be Against Us?
6. Chorus. Worthy Is The Lamb
7. BONUS: Recitative & Arioso: Thy rebuke hath broken…Behold and see (alternative version)
Handel: Acis and Galatea, HWV 49a
8. Sinfonia
9. Chorus: Oh, the pleasure of the plains!
10. Accompagnato: Ye verdant plains & woody mountains (Galatea)
11. Air: Hush, ye pretty warbling choir! (Galatea)
12. Air: Where shall I seek the charming fair? (Acis)
13. Recitative: Stay, shepherd, stay! (Damon)
14. Air: Shepherd, what art thou pursuing? (Damon)
15. Recitative: Lo, here my love (Acis)
16. Air: Love in her eyes sits playing (Acis)
17. Recitative: Oh didst thou know the pains of absent love (Galatea)
18. Air: As when the dove laments her love (Galatea)
19. Duet: Happy, happy we! (Acis & Galatea)

DISC 4

1. Chorus: Wretched lovers!
2. Accompagnato: I rage - I melt - I burn! (Polyphemus)
3. Air: O ruddier than the cherry (Polyphemus)
4. Recitative: Whither, fairest, art thou running (Polyphemus, Galatea)
5. Air: Cease to beauty to be suing (Polyphemus)
6. Would you gain the tender creature (Coridon)
7. Recitative: His hideous love provokes my rage (Acis)
8. Air: Love sounds th' alarm
9. Air: Consider, fond shepherd
10. Recitative: Cease, oh cease, thou gentle youth
11. Trio: The flocks shall leave the mountains (Galatea, Acis, Polyphemus)
12. Accompagnato: Help, Galatea! Help, ye parent gods! (Acis)
13. Chorus: Mourn, all ye muses
14. Solo & Chorus: Must I Acis still bemoan (Galatea)
15. Recitative: 'Tis done! Thus I exert my pow'r divine (Galatea)
16. Air: Heart, the seat of soft delight (Galatea)
17. Chorus: Galatea, dry thy tears
18. BONUS: Air: O ruddier than the cherry (Polyphemus) (alternative version)

Отчёт EACDISC 1

Exact Audio Copy V1.0 beta 3 from 29. August 2011
EAC extraction logfile from 11. July 2014, 23:24
Händel, Georg Friedrich / Messiah - Singing J.Sutherland, G.Bumbry, K.McKellar, D.Ward
Used drive : PIONEER DVD-RW DVRTD11RS Adapter: 1 ID: 0
Read mode : Secure
Utilize accurate stream : Yes
Defeat audio cache : Yes
Make use of C2 pointers : No
Read offset correction : 6
Overread into Lead-In and Lead-Out : No
Fill up missing offset samples with silence : Yes
Delete leading and trailing silent blocks : No
Null samples used in CRC calculations : Yes
Used interface : Native Win32 interface for Win NT & 2000
Used output format : User Defined Encoder
Selected bitrate : 128 kBit/s
Quality : High
Add ID3 tag : No
Command line compressor : C:\Program Files\Monkey's Audio\MAC.exe
Additional command line options : %source% %dest% -c3000
TOC of the extracted CD
Track | Start | Length | Start sector | End sector
---------------------------------------------------------
1 | 0:00.33 | 5:10.40 | 33 | 23322
2 | 5:10.73 | 3:37.50 | 23323 | 39647
3 | 8:48.48 | 3:34.27 | 39648 | 55724
4 | 12:23.00 | 3:12.20 | 55725 | 70144
5 | 15:35.20 | 2:02.10 | 70145 | 79304
6 | 17:37.30 | 5:01.50 | 79305 | 101929
7 | 22:39.05 | 2:45.35 | 101930 | 114339
8 | 25:24.40 | 7:22.10 | 114340 | 147499
9 | 32:46.50 | 2:31.53 | 147500 | 158877
10 | 35:18.28 | 4:49.00 | 158878 | 180552
11 | 40:07.28 | 4:30.60 | 180553 | 200862
12 | 44:38.13 | 3:39.15 | 200863 | 217302
13 | 48:17.28 | 2:04.12 | 217303 | 226614
14 | 50:21.40 | 2:10.68 | 226615 | 236432
15 | 52:32.33 | 4:40.45 | 236433 | 257477
16 | 57:13.03 | 6:46.12 | 257478 | 287939
17 | 63:59.15 | 2:37.60 | 287940 | 299774
Range status and errors
Selected range
Filename C:\Documents and Settings\Администратор\Мои документы\CDImage.wav
Peak level 93.1 %
Extraction speed 2.3 X
Range quality 100.0 %
Test CRC 5DBF6B27
Copy CRC 5DBF6B27
Copy OK
No errors occurred
AccurateRip summary
Track 1 cannot be verified as accurate (confidence 2) [CDE9E81C], AccurateRip returned [0F3B8953] (AR v2)
Track 2 cannot be verified as accurate (confidence 2) [C97640D2], AccurateRip returned [0D741A70] (AR v2)
Track 3 cannot be verified as accurate (confidence 2) [9EB79653], AccurateRip returned [661071C9] (AR v2)
Track 4 cannot be verified as accurate (confidence 2) [10FBE66D], AccurateRip returned [C35ECA1E] (AR v2)
Track 5 cannot be verified as accurate (confidence 2) [9A848538], AccurateRip returned [75E51C2A] (AR v2)
Track 6 cannot be verified as accurate (confidence 2) [94E09FE8], AccurateRip returned [1B63BF7D] (AR v2)
Track 7 cannot be verified as accurate (confidence 2) [2EBD13AF], AccurateRip returned [6CF4A595] (AR v2)
Track 8 cannot be verified as accurate (confidence 2) [736BBAFB], AccurateRip returned [6A2B425E] (AR v2)
Track 9 cannot be verified as accurate (confidence 2) [ACD953EC], AccurateRip returned [45885513] (AR v2)
Track 10 cannot be verified as accurate (confidence 2) [36C3B392], AccurateRip returned [D2779C5F] (AR v2)
Track 11 cannot be verified as accurate (confidence 2) [C200CED2], AccurateRip returned [BB6BE4A2] (AR v2)
Track 12 cannot be verified as accurate (confidence 2) [985A86DC], AccurateRip returned [B3055933] (AR v2)
Track 13 cannot be verified as accurate (confidence 2) [09427B05], AccurateRip returned [9759C518] (AR v2)
Track 14 cannot be verified as accurate (confidence 2) [00C7C93C], AccurateRip returned [C2D4F4E5] (AR v2)
Track 15 cannot be verified as accurate (confidence 2) [1AE9D165], AccurateRip returned [4C361226] (AR v2)
Track 16 cannot be verified as accurate (confidence 2) [985B8BA2], AccurateRip returned [C66A36D2] (AR v2)
Track 17 cannot be verified as accurate (confidence 2) [9A1B6B9A], AccurateRip returned [D9ECAB98] (AR v2)
No tracks could be verified as accurate
You may have a different pressing from the one(s) in the database
End of status report
---- CUETools DB Plugin V2.1.3
[CTDB TOCID: Mx2R2wbj9V1B7PW1gZ5Fd0831fs-] disk not present in database, Submit result: discs with pregaps not supported in this protocol version
==== Log checksum 2FFB65666CF2953394EDCF7066DDC9447D8FB4F4C4B9D8A254762267DD8F52DC ====

DISC 2

Exact Audio Copy V1.0 beta 3 from 29. August 2011
EAC extraction logfile from 12. July 2014, 11:15
Händel, Georg Friedrich / Messiah - Singing J.Sutherland, G.Bumbry, K.McKellar, D.Ward - Disc 2
Used drive : PIONEER DVD-RW DVRTD11RS Adapter: 1 ID: 0
Read mode : Secure
Utilize accurate stream : Yes
Defeat audio cache : Yes
Make use of C2 pointers : No
Read offset correction : 6
Overread into Lead-In and Lead-Out : No
Fill up missing offset samples with silence : Yes
Delete leading and trailing silent blocks : No
Null samples used in CRC calculations : Yes
Used interface : Native Win32 interface for Win NT & 2000
Used output format : User Defined Encoder
Selected bitrate : 128 kBit/s
Quality : High
Add ID3 tag : No
Command line compressor : C:\Program Files\Monkey's Audio\MAC.exe
Additional command line options : %source% %dest% -c3000
TOC of the extracted CD
Track | Start | Length | Start sector | End sector
---------------------------------------------------------
1 | 0:00.33 | 3:41.67 | 33 | 16674
2 | 3:42.25 | 12:23.30 | 16675 | 72429
3 | 16:05.55 | 2:29.35 | 72430 | 83639
4 | 18:35.15 | 2:34.25 | 83640 | 95214
5 | 21:09.40 | 4:24.58 | 95215 | 115072
6 | 25:34.23 | 3:14.07 | 115073 | 129629
7 | 28:48.30 | 2:24.15 | 129630 | 140444
8 | 31:12.45 | 1:47.18 | 140445 | 148487
9 | 32:59.63 | 2:58.45 | 148488 | 161882
10 | 35:58.33 | 3:30.50 | 161883 | 177682
11 | 39:29.08 | 2:08.27 | 177683 | 187309
12 | 41:37.35 | 3:03.13 | 187310 | 201047
13 | 44:40.48 | 1:47.72 | 201048 | 209144
14 | 46:28.45 | 2:39.18 | 209145 | 221087
15 | 49:07.63 | 1:43.35 | 221088 | 228847
16 | 50:51.23 | 2:53.67 | 228848 | 241889
17 | 53:45.15 | 1:50.00 | 241890 | 250139
18 | 55:35.15 | 2:26.68 | 250140 | 261157
19 | 58:02.08 | 4:41.05 | 261158 | 282237
Range status and errors
Selected range
Filename C:\Documents and Settings\Администратор\Мои документы\CDImage.wav
Peak level 89.2 %
Extraction speed 2.3 X
Range quality 100.0 %
Test CRC 9C278745
Copy CRC 9C278745
Copy OK
No errors occurred
AccurateRip summary
Track 1 accurately ripped (confidence 1) [80749A28] (AR v2)
Track 2 accurately ripped (confidence 1) [8F96DAA9] (AR v2)
Track 3 accurately ripped (confidence 1) [82463200] (AR v2)
Track 4 accurately ripped (confidence 1) [CB481E01] (AR v2)
Track 5 accurately ripped (confidence 1) [960700F8] (AR v2)
Track 6 accurately ripped (confidence 1) [44E6B2D3] (AR v2)
Track 7 accurately ripped (confidence 1) [7A4D06CD] (AR v2)
Track 8 accurately ripped (confidence 1) [02FF5DB4] (AR v2)
Track 9 accurately ripped (confidence 1) [A32BB59D] (AR v2)
Track 10 accurately ripped (confidence 1) [6AB6A79B] (AR v2)
Track 11 accurately ripped (confidence 1) [FA3FA427] (AR v2)
Track 12 accurately ripped (confidence 1) [8529E6DF] (AR v2)
Track 13 accurately ripped (confidence 1) [0564CE38] (AR v2)
Track 14 accurately ripped (confidence 1) [F263F261] (AR v2)
Track 15 accurately ripped (confidence 1) [25759FBF] (AR v2)
Track 16 accurately ripped (confidence 1) [9C5BF535] (AR v2)
Track 17 accurately ripped (confidence 1) [9710C38F] (AR v2)
Track 18 accurately ripped (confidence 1) [C5E3457F] (AR v2)
Track 19 accurately ripped (confidence 1) [E246962D] (AR v2)
All tracks accurately ripped
End of status report
---- CUETools DB Plugin V2.1.3
[CTDB TOCID: BUewHxt6tgPADQLsdFqs7yZkvPM-] disk not present in database, Submit result: discs with pregaps not supported in this protocol version
==== Log checksum F50664CADA53E3C353499987935D3F8488ACB4E2C40BD8EB1C450EB6A3A545D1 ====

DISC 3

Exact Audio Copy V1.0 beta 3 from 29. August 2011
EAC extraction logfile from 12. July 2014, 11:53
Unknown Artist / Unknown Title
Used drive : PIONEER DVD-RW DVRTD11RS Adapter: 1 ID: 0
Read mode : Secure
Utilize accurate stream : Yes
Defeat audio cache : Yes
Make use of C2 pointers : No
Read offset correction : 6
Overread into Lead-In and Lead-Out : No
Fill up missing offset samples with silence : Yes
Delete leading and trailing silent blocks : No
Null samples used in CRC calculations : Yes
Used interface : Native Win32 interface for Win NT & 2000
Used output format : User Defined Encoder
Selected bitrate : 128 kBit/s
Quality : High
Add ID3 tag : No
Command line compressor : C:\Program Files\Monkey's Audio\MAC.exe
Additional command line options : %source% %dest% -c3000
TOC of the extracted CD
Track | Start | Length | Start sector | End sector
---------------------------------------------------------
1 | 0:00.00 | 7:11.32 | 0 | 32356
2 | 7:11.32 | 2:21.12 | 32357 | 42943
3 | 9:32.44 | 9:10.64 | 42944 | 84257
4 | 18:43.33 | 4:30.27 | 84258 | 104534
5 | 23:13.60 | 4:51.50 | 104535 | 126409
6 | 28:05.35 | 9:23.54 | 126410 | 168688
7 | 37:29.14 | 3:44.41 | 168689 | 185529
8 | 41:13.55 | 3:41.15 | 185530 | 202119
9 | 44:54.70 | 5:40.19 | 202120 | 227638
10 | 50:35.14 | 1:02.20 | 227639 | 232308
11 | 51:37.34 | 4:28.73 | 232309 | 252481
12 | 56:06.32 | 2:39.53 | 252482 | 264459
13 | 58:46.10 | 0:34.64 | 264460 | 267073
14 | 59:20.74 | 3:01.61 | 267074 | 280709
15 | 62:22.60 | 0:34.44 | 280710 | 283303
16 | 62:57.29 | 6:04.12 | 283304 | 310615
17 | 69:01.41 | 0:25.44 | 310616 | 312534
18 | 69:27.10 | 4:53.17 | 312535 | 334526
19 | 74:20.27 | 2:50.10 | 334527 | 347286
Range status and errors
Selected range
Filename C:\Documents and Settings\Администратор\Мои документы\CDImage.wav
Peak level 90.7 %
Extraction speed 5.3 X
Range quality 100.0 %
Test CRC A8ECEE11
Copy CRC A8ECEE11
Copy OK
No errors occurred
AccurateRip summary
Track 1 accurately ripped (confidence 1) [D1FED7E4] (AR v2)
Track 2 accurately ripped (confidence 1) [D751DA92] (AR v2)
Track 3 accurately ripped (confidence 1) [AEBFF471] (AR v2)
Track 4 accurately ripped (confidence 1) [7E5DD3DF] (AR v2)
Track 5 accurately ripped (confidence 1) [5123D9DA] (AR v2)
Track 6 accurately ripped (confidence 1) [30C98969] (AR v2)
Track 7 accurately ripped (confidence 1) [38316ECF] (AR v2)
Track 8 accurately ripped (confidence 1) [68711A6B] (AR v2)
Track 9 accurately ripped (confidence 1) [CBA01F5F] (AR v2)
Track 10 accurately ripped (confidence 1) [58DDEE03] (AR v2)
Track 11 accurately ripped (confidence 1) [617F9543] (AR v2)
Track 12 accurately ripped (confidence 1) [D4C0C81F] (AR v2)
Track 13 accurately ripped (confidence 1) [4D126404] (AR v2)
Track 14 accurately ripped (confidence 1) [75B1C763] (AR v2)
Track 15 accurately ripped (confidence 1) [7B76CFE2] (AR v2)
Track 16 accurately ripped (confidence 1) [9DCFC068] (AR v2)
Track 17 accurately ripped (confidence 1) [3DD7281F] (AR v2)
Track 18 accurately ripped (confidence 1) [863A0257] (AR v2)
Track 19 accurately ripped (confidence 1) [7644C714] (AR v2)
All tracks accurately ripped
End of status report
---- CUETools DB Plugin V2.1.3
[CTDB TOCID: PRYEPqcbZUKGpBjKhjAl3ERWJYo-] disk not present in database, Submit result: PRYEPqcbZUKGpBjKhjAl3ERWJYo- has been uploaded
==== Log checksum 351B80FC41301EADB5EB8EF6DFFF8B5067CE5720D36A531BD22811422F32010D ====

DISC 4

Exact Audio Copy V1.0 beta 3 from 29. August 2011
EAC extraction logfile from 12. July 2014, 12:25
Unknown Artist / Unknown Title
Used drive : PIONEER DVD-RW DVRTD11RS Adapter: 1 ID: 0
Read mode : Secure
Utilize accurate stream : Yes
Defeat audio cache : Yes
Make use of C2 pointers : No
Read offset correction : 6
Overread into Lead-In and Lead-Out : No
Fill up missing offset samples with silence : Yes
Delete leading and trailing silent blocks : No
Null samples used in CRC calculations : Yes
Used interface : Native Win32 interface for Win NT & 2000
Used output format : User Defined Encoder
Selected bitrate : 128 kBit/s
Quality : High
Add ID3 tag : No
Command line compressor : C:\Program Files\Monkey's Audio\MAC.exe
Additional command line options : %source% %dest% -c3000
TOC of the extracted CD
Track | Start | Length | Start sector | End sector
---------------------------------------------------------
1 | 0:00.00 | 5:11.40 | 0 | 23364
2 | 5:11.40 | 1:38.53 | 23365 | 30767
3 | 6:50.18 | 3:22.07 | 30768 | 45924
4 | 10:12.25 | 1:28.62 | 45925 | 52586
5 | 11:41.12 | 3:37.29 | 52587 | 68890
6 | 15:18.41 | 4:03.22 | 68891 | 87137
7 | 19:21.63 | 0:34.67 | 87138 | 89754
8 | 19:56.55 | 3:08.23 | 89755 | 103877
9 | 23:05.03 | 4:06.61 | 103878 | 122388
10 | 27:11.64 | 0:39.02 | 122389 | 125315
11 | 27:50.66 | 2:33.40 | 125316 | 136830
12 | 30:24.31 | 1:33.03 | 136831 | 143808
13 | 31:57.34 | 3:13.16 | 143809 | 158299
14 | 35:10.50 | 4:31.19 | 158300 | 178643
15 | 39:41.69 | 0:30.65 | 178644 | 180958
16 | 40:12.59 | 3:58.30 | 180959 | 198838
17 | 44:11.14 | 3:03.02 | 198839 | 212565
18 | 47:14.16 | 3:26.64 | 212566 | 228079
Range status and errors
Selected range
Filename C:\Documents and Settings\Администратор\Мои документы\CDImage.wav
Peak level 99.8 %
Extraction speed 5.0 X
Range quality 100.0 %
Test CRC A5F1C743
Copy CRC A5F1C743
Copy OK
No errors occurred
AccurateRip summary
Track 1 accurately ripped (confidence 1) [69BB7625] (AR v2)
Track 2 accurately ripped (confidence 1) [FC26BACB] (AR v2)
Track 3 accurately ripped (confidence 1) [21BE4FE7] (AR v2)
Track 4 accurately ripped (confidence 1) [A33D9345] (AR v2)
Track 5 accurately ripped (confidence 1) [E4B465B7] (AR v2)
Track 6 accurately ripped (confidence 1) [0DFEEA5E] (AR v2)
Track 7 accurately ripped (confidence 1) [E11D6CC0] (AR v2)
Track 8 accurately ripped (confidence 1) [A2F2A0A2] (AR v2)
Track 9 accurately ripped (confidence 1) [C3282A04] (AR v2)
Track 10 accurately ripped (confidence 1) [73BE09D8] (AR v2)
Track 11 accurately ripped (confidence 1) [D78BF670] (AR v2)
Track 12 accurately ripped (confidence 1) [01483B59] (AR v2)
Track 13 accurately ripped (confidence 1) [6A931233] (AR v2)
Track 14 accurately ripped (confidence 1) [6D8D88CA] (AR v2)
Track 15 accurately ripped (confidence 1) [589F0BFF] (AR v2)
Track 16 accurately ripped (confidence 1) [F4FE5557] (AR v2)
Track 17 accurately ripped (confidence 1) [ABE77D0E] (AR v2)
Track 18 accurately ripped (confidence 1) [B996B12D] (AR v2)
All tracks accurately ripped
End of status report
---- CUETools DB Plugin V2.1.3
[CTDB TOCID: k2wxD8qz2frx9uJUIf4fsF.TdZM-] disk not present in database, Submit result: k2wxD8qz2frx9uJUIf4fsF.TdZM- has been uploaded
==== Log checksum 609E7ECF15AF214488DFF8335A300B5BF85BCB4B391EE1EE2A29273A658A234B ====
[teatrix.ru].t18910.torrent 
Торрент: Зарегистрирован [ 2016-03-18 12:20 ] · 2BBFF4741E726C6BEB498F7B39E9A053626251CF

Скачать .torrent

Скачать

14 KB

Статус: проверено
Скачан: 0 раз
Размер: 1.26 GB
terms.php



Быстрый ответ

Имя:

      
Для отправки сообщений необходимо включить JavaScript
Показать сообщения:    

Текущее время: 03-Дек 09:47

Часовой пояс: UTC + 3


Вы можете начинать темы
Вы можете отвечать на сообщения
Вы не можете редактировать свои сообщения
Вы не можете удалять свои сообщения
Вы не можете голосовать в опросах
Вы не можете прикреплять файлы к сообщениям
Вы можете скачивать файлы