Mike Boyle - Functional Strength Coach Vol 1 [2004, фитнес, силовые тренировки, ENG] (Видеоурок)


Статистика раздачи [Обновить пиров]
Размер:  6.21 GB   |    Зарегистрирован:  8 месяцев 15 дней   |    Скачан:  0 раз

Полного источника не было: Никогда

Личеров:  9  [  0 KB/s  ]   Подробная статистика пиров
 
   
 
 
 

[Цитировать]

Mike Boyle - Functional Strength Coach Vol 1
Страна: США
Тематика: фитнес, силовые тренировки
Тип раздаваемого материала: Видеоурок
Продолжительность: 11:02:46
Год выпуска: 2004
Язык: Английский
Перевод: Отсутствует
Описание: A live two-day seminar captured on DVD. Contains lectures and practicals on assessment, core training, and program design. Packed with new ideas. Only 30 people were permitted to attend Mike Boyle's closed door, 2-day FUNCTIONAL STRENGTH COACH workshop where he revealed his most complete, updated, step-by-step athletic performance training system. For 2-action-packed days, world renowned strength coach Mike Boyle, conducted a private invitation-only workshop for an elite group of high level strength coaches and trainers. During this exclusive engagement, Boyle revealed his updated athletic performance training system. And I mean everything from A to Z. It's, by far, the most comprehensive, up to date, athletic training system ever created in the strength and conditioning industry - period! And you can witness the entire 12 + hour program from the comfort of your own home!
Живой двухдневный семинар, заснятый на ДВД. Содержит лекции и практику, тренировку мышечного корсета, а также программу тренировок. Основан на новых идеях. Только 30 человек имели честь посетить закрытую двухдневную презентацию тренировки по силовому функциональному тренингу Майка Бойла, где он продемонстрировал свою наиболее полную, обновлённую, пошаговую систему атлетического выступления. Для сжатого двухдневного действа всемирно известный тренер силового спорта создал закрытый класс только для элитный тренеров высокого уровня. На протяжении этого эксклюзивного собрания Бойл продемонстрировал свою обновленную тренировочную систему атлетического выступления. Имеется в виду всё – от А до Я. Это без сомнения является наиболее полноценной, новейшей атлетической тренировочной системой, которая когда либо была создана в индустрии силового спорта и подготовки. И вы можете посмотреть всю 12-ти часовую программу в комфорте собственного дома!
Доп. информация: Тренер Бойль много говорит, знание английского языка рекомендуется для понимания лекции. Есть также демонстрации.
За описание спасибо Aeterna585
Другие материалы от Mike Boyle
Mike Boyle - Functional Strength Coach Vol 2
Mike Boyle - Functional Strength Coach Vol 3
Mike Boyle - Functional Strength Coach Vol 4
Mike Boyle - Functional Training for Sports [2004, PDF, ENG]
Mike Boyle - Advances in Functional Training [2011, PDF, EPUB, ENG]
Качество: DVDRip
Формат: AVI
Видео кодек: DivX
Аудио кодек: MP3
Видео: XviD 1200 Kbps, 720x480, 29.97 fps
Аудио: MP3 128 Kbps 2 channels 48.0 KHz

Скриншоты

Media Info

General
Complete name : F:\Спорт\Новая теория тренировок\Mike Boyle\Mike Boyle - Functional Strength Coach Vol 1\Mike-Boyle-Functional-Strength-Coach-Vol-1-4.avi
Format : AVI
Format/Info : Audio Video Interleave
File size : 1 018 MiB
Duration : 1h 15mn
Overall bit rate : 1 884 Kbps
Video
ID : 0
Format : MPEG-4 Visual
Codec ID : XVID
Codec ID/Hint : XviD
Duration : 1h 15mn
Bit rate : 1 200 Kbps
Width : 720 pixels
Height : 480 pixels
Display aspect ratio : 3:2
Frame rate : 29.970 fps
Standard : NTSC
Color space : YUV
Chroma subsampling : 4:2:0
Compression mode : Lossy
Bits/(Pixel*Frame) : 0.116
Stream size : 648 MiB (64%)
Audio
ID : 1
Format : MPEG Audio
Codec ID : 55
Codec ID/Hint : MP3
Duration : 1h 15mn
Bit rate : 128 Kbps
Channel(s) : 2 channels
Sampling rate : 48.0 KHz
Compression mode : Lossy
Stream size : 69.1 MiB (7%)
Alignment : Aligned on interleaves
Interleave, duration : 24 ms (0.72 video frame)
ps: Отдельная благодарность Olu6ka.
[teatrix.ru].t18911.torrent 
Торрент: Зарегистрирован [ 2016-03-18 12:20 ] · 805969DED531B2907D1CD6C5B18A39CF8422BE38

Скачать .torrent

Скачать

17 KB

Статус: проверено
Скачан: 0 раз
Размер: 6.21 GB
terms.php



Быстрый ответ

Имя:

      
Для отправки сообщений необходимо включить JavaScript
Показать сообщения:    

Текущее время: 03-Дек 09:50

Часовой пояс: UTC + 3


Вы можете начинать темы
Вы можете отвечать на сообщения
Вы не можете редактировать свои сообщения
Вы не можете удалять свои сообщения
Вы не можете голосовать в опросах
Вы не можете прикреплять файлы к сообщениям
Вы можете скачивать файлы