(Classical, song) Canciones espanolas: Granados, Guridi, Turina, Toldra, Montsalvatge - Sylvia Schwartz, Malcolm Martineau - 2013, FLAC (image+.cue) lossless


 

[Цитировать]

Canciones españolas: Granados, Guridi, Turina, Toldrá, Montsalvatge - Sylvia Schwartz, Malcolm Martineau
Жанр: Classical, song
Страна-производитель диска: UK
Год издания диска: 2013
Издатель (лейбл): Hyperion
Номер по каталогу: CDA67954
Дата записи: 2012
Аудиокодек: FLAC
Тип рипа: image+.cue
Битрейт аудио: lossless
Продолжительность: 67:58
Источник: собственный рип
Наличие сканов в содержимом раздачи: да
Треклист:
Enrique Granados (1867-1916)
[1] La maja & el ruiseñor from the opera Goyescas
Tonadillas en estilo antiguo
[2] 2. El majo discreto
[3] 4. El majo timido
[4] 9. Amor & odio
[5] 1. La maja de Goya
[6] 10. Callejeo
[7] 3. El tra-la-la & el punteado
[8] 5. La maja dolorosa 1: ¡Oh, muerte cruel!
[9] 6. La maja dolorosa 2: ¡Ay majo de mi vida!
[10] 7. La maja dolorosa 3: De aquel majo amante
Jesús Guridi (1886-1961)
[11]-[16] Seis canciones castellanas
Joaquín Turina (1882-1949)
[17]-[19] Tres poemas, Op.81
Eduardo Toldrá (1895-1962)
[20] Abril
[21] Maig
Xavier Montsalvatge (1912-2002)
[22]-[26] Cinco canciones negras
Исполнители:
Sylvia Schwartz soprano
Malcolm Martineau piano

Лог создания рипа

Exact Audio Copy V1.0 beta 3 from 29. August 2011
EAC extraction logfile from 12. July 2014, 1:18
Sylvia Schwartz, Malcolm Martineau / Canciones espanolas
Used drive : HL-DT-STDVDRAM GSA-4083N Adapter: 1 ID: 0
Read mode : Secure
Utilize accurate stream : Yes
Defeat audio cache : Yes
Make use of C2 pointers : No
Read offset correction : 667
Overread into Lead-In and Lead-Out : No
Fill up missing offset samples with silence : Yes
Delete leading and trailing silent blocks : No
Null samples used in CRC calculations : Yes
Used interface : Native Win32 interface for Win NT & 2000
Used output format : User Defined Encoder
Selected bitrate : 896 kBit/s
Quality : High
Add ID3 tag : No
Command line compressor : C:\Program Files\Exact Audio Copy\Flac\flac.exe
Additional command line options : -V -8 %source%
TOC of the extracted CD
Track | Start | Length | Start sector | End sector
---------------------------------------------------------
1 | 0:00.00 | 6:32.01 | 0 | 29400
2 | 6:32.01 | 1:34.66 | 29401 | 36516
3 | 8:06.67 | 1:00.59 | 36517 | 41075
4 | 9:07.51 | 2:17.17 | 41076 | 51367
5 | 11:24.68 | 3:22.22 | 51368 | 66539
6 | 14:47.15 | 0:51.52 | 66540 | 70416
7 | 15:38.67 | 1:08.51 | 70417 | 75567
8 | 16:47.43 | 2:22.68 | 75568 | 86285
9 | 19:10.36 | 2:19.40 | 86286 | 96750
10 | 21:30.01 | 2:51.67 | 96751 | 109642
11 | 24:21.68 | 2:42.40 | 109643 | 121832
12 | 27:04.33 | 2:42.59 | 121833 | 134041
13 | 29:47.17 | 2:14.45 | 134042 | 144136
14 | 32:01.62 | 3:35.52 | 144137 | 160313
15 | 35:37.39 | 2:44.35 | 160314 | 172648
16 | 38:21.74 | 3:37.01 | 172649 | 188924
17 | 41:59.00 | 3:29.34 | 188925 | 204633
18 | 45:28.34 | 2:15.11 | 204634 | 214769
19 | 47:43.45 | 2:32.02 | 214770 | 226171
20 | 50:15.47 | 1:53.68 | 226172 | 234714
21 | 52:09.40 | 2:55.18 | 234715 | 247857
22 | 55:04.58 | 4:53.08 | 247858 | 269840
23 | 59:57.66 | 2:05.35 | 269841 | 279250
24 | 62:03.26 | 2:00.73 | 279251 | 288323
25 | 64:04.24 | 2:39.63 | 288324 | 300311
26 | 66:44.12 | 1:12.30 | 300312 | 305741
Range status and errors
Selected range
Filename J:\New Music\CDA67954 - Canciones espanolas\Canciones espanolas.wav
Peak level 100.0 %
Extraction speed 3.5 X
Range quality 100.0 %
Test CRC A691B9EC
Copy CRC A691B9EC
Copy OK
No errors occurred
AccurateRip summary
Track 1 not present in database
Track 2 not present in database
Track 3 not present in database
Track 4 not present in database
Track 5 not present in database
Track 6 not present in database
Track 7 not present in database
Track 8 not present in database
Track 9 not present in database
Track 10 not present in database
Track 11 not present in database
Track 12 not present in database
Track 13 not present in database
Track 14 not present in database
Track 15 not present in database
Track 16 not present in database
Track 17 not present in database
Track 18 not present in database
Track 19 not present in database
Track 20 not present in database
Track 21 not present in database
Track 22 not present in database
Track 23 not present in database
Track 24 not present in database
Track 25 not present in database
Track 26 not present in database
None of the tracks are present in the AccurateRip database
End of status report
==== Log checksum 29A9DF5469E9B57228AEDCE268CA0AB25C7F64AA62EED8706E387807D4425ED8 ====



Показать сообщения:    

Текущее время: 03-Дек 07:39

Часовой пояс: UTC + 3


Вы не можете начинать темы
Вы не можете отвечать на сообщения
Вы не можете редактировать свои сообщения
Вы не можете удалять свои сообщения
Вы не можете голосовать в опросах
Вы не можете прикреплять файлы к сообщениям
Вы не можете скачивать файлы