(Contemporary, Avant-garde) James Dillon - the soadie waste [chamber music] - Arditti Quartet, Noriko Kawai etc - 2008, FLAC (image+.cue) lossless


 

[Цитировать]

James Dillon - the soadie waste, Dillug-Kefitsah, Del Cuarto Elemento, etc
Жанр: Contemporary, Avant-garde
Страна-производитель диска: Англия
Год издания диска: 2008
Издатель (лейбл): NMC
Дата записи: 2008
Аудиокодек: FLAC
Тип рипа: image+.cue
Битрейт аудио: lossless
Продолжительность: 1h 15m 49s
Источник: собственный рип
Наличие сканов в содержимом раздачи: да
Треклист:
[1] Dillug-Kefitsah, for piano
[2] Del Cuarto Elemento, for violin
[3]-[14] Traumwerk Book III, for violin and piano
[15] black/nebulae, for piano duo
[16] the soadie waste, for piano quintet
Исполнители:
Noriko Kawai, piano [1], [3]-[16]
Irvine Arditti, violin [1]-[14]
Hiroaki Takenouchi, piano [15]
Arditti Quartet (Irvine Arditti, Ralf Ehlers, Ashot Sarkissjan, Lucas Fels) [16]

Лог создания рипа

Exact Audio Copy V1.0 beta 3 from 29. August 2011
EAC extraction logfile from 14. May 2014, 17:41
James Dillon / the soadie waste
Used drive : HL-DT-STDVD+-RW GT80N Adapter: 0 ID: 1
Read mode : Secure
Utilize accurate stream : Yes
Defeat audio cache : Yes
Make use of C2 pointers : No
Combined read/write offset correction : 0
Overread into Lead-In and Lead-Out : No
Fill up missing offset samples with silence : Yes
Delete leading and trailing silent blocks : No
Null samples used in CRC calculations : Yes
Used interface : Native Win32 interface for Win NT & 2000
Used output format : User Defined Encoder
Selected bitrate : 768 kBit/s
Quality : High
Add ID3 tag : No
Command line compressor : E:\Exact Audio Copy\FLAC\FLAC.EXE
Additional command line options : -6 -V -T "ARTIST=%artist%" -T "TITLE=%title%" -T "ALBUM=%albumtitle%" -T "DATE=%year%" -T "TRACKNUMBER=%tracknr%" -T "GENRE=%genre%" -T "COMMENT=%comment%" -T "BAND=%albuminterpret%" -T "ALBUMARTIST=%albuminterpret%" -T "COMPOSER=%composer%" %haslyrics%--tag-from-file=LYRICS="%lyricsfile%"%haslyrics% -T "DISCNUMBER=%cdnumber%" -T "TOTALDISCS=%totalcds%" -T "TOTALTRACKS=%numtracks%" %hascover%--picture="%coverfile%"%hascover% %source% -o %dest%
TOC of the extracted CD
Track | Start | Length | Start sector | End sector
---------------------------------------------------------
1 | 0:00.00 | 3:27.30 | 0 | 15554
2 | 3:27.30 | 10:18.64 | 15555 | 61968
3 | 13:46.19 | 4:17.51 | 61969 | 81294
4 | 18:03.70 | 1:36.60 | 81295 | 88554
5 | 19:40.55 | 2:53.22 | 88555 | 101551
6 | 22:34.02 | 2:12.29 | 101552 | 111480
7 | 24:46.31 | 2:40.73 | 111481 | 123553
8 | 27:27.29 | 0:47.19 | 123554 | 127097
9 | 28:14.48 | 3:56.01 | 127098 | 144798
10 | 32:10.49 | 1:14.19 | 144799 | 150367
11 | 33:24.68 | 2:42.63 | 150368 | 162580
12 | 36:07.56 | 1:40.53 | 162581 | 170133
13 | 37:48.34 | 1:44.33 | 170134 | 177966
14 | 39:32.67 | 2:46.62 | 177967 | 190478
15 | 42:19.54 | 20:04.69 | 190479 | 280847
16 | 62:24.48 | 13:27.22 | 280848 | 341394
Range status and errors
Selected range
Filename E:\Dillon - The Soadie Waste\James Dillon - the soadie waste.wav
Peak level 100.0 %
Extraction speed 4.5 X
Range quality 100.0 %
Copy CRC 5083C1BB
Copy OK
No errors occurred
End of status report

Содержание индексной карты (.CUE)

REM GENRE Avant-garde
REM DISCID EB11C710
REM COMMENT "ExactAudioCopy v1.0b3"
PERFORMER "James Dillon"
TITLE "the soadie waste"
FILE "James Dillon - the soadie waste.flac" WAVE
TRACK 01 AUDIO
TITLE "Dillug-Kefitsah"
PERFORMER "James Dillon"
INDEX 01 00:00:00
TRACK 02 AUDIO
TITLE "Del Cuarto Elemento"
PERFORMER "James Dillon"
INDEX 01 03:27:30
TRACK 03 AUDIO
TITLE "Traumwerk Book III - No. 1"
PERFORMER "James Dillon"
INDEX 00 11:14:29
INDEX 01 13:46:19
TRACK 04 AUDIO
TITLE "Traumwerk Book III - No. 2"
PERFORMER "James Dillon"
INDEX 01 18:03:70
TRACK 05 AUDIO
TITLE "Traumwerk Book III - No. 3"
PERFORMER "James Dillon"
INDEX 00 19:38:26
INDEX 01 19:40:55
TRACK 06 AUDIO
TITLE "Traumwerk Book III - No. 4"
PERFORMER "James Dillon"
INDEX 00 21:54:16
INDEX 01 22:34:02
TRACK 07 AUDIO
TITLE "Traumwerk Book III - No. 5"
PERFORMER "James Dillon"
INDEX 00 24:18:32
INDEX 01 24:46:31
TRACK 08 AUDIO
TITLE "Traumwerk Book III - No. 6"
PERFORMER "James Dillon"
INDEX 00 26:11:04
INDEX 01 27:27:29
TRACK 09 AUDIO
TITLE "Traumwerk Book III - No. 7"
PERFORMER "James Dillon"
INDEX 00 27:52:74
INDEX 01 28:14:48
TRACK 10 AUDIO
TITLE "Traumwerk Book III - No. 8"
PERFORMER "James Dillon"
INDEX 00 31:59:30
INDEX 01 32:10:49
TRACK 11 AUDIO
TITLE "Traumwerk Book III - No. 9"
PERFORMER "James Dillon"
INDEX 01 33:24:68
TRACK 12 AUDIO
TITLE "Traumwerk Book III - No. 10"
PERFORMER "James Dillon"
INDEX 01 36:07:56
TRACK 13 AUDIO
TITLE "Traumwerk Book III - No. 11"
PERFORMER "James Dillon"
INDEX 00 37:48:29
INDEX 01 37:48:34
TRACK 14 AUDIO
TITLE "Traumwerk Book III - No. 12"
PERFORMER "James Dillon"
INDEX 00 39:23:04
INDEX 01 39:32:67
TRACK 15 AUDIO
TITLE "black/nebulae"
PERFORMER "James Dillon"
INDEX 00 42:03:70
INDEX 01 42:19:54
TRACK 16 AUDIO
TITLE "the soadie waste"
PERFORMER "James Dillon"
INDEX 00 59:57:16
INDEX 01 62:24:48



Показать сообщения:    

Текущее время: 09-Дек 14:40

Часовой пояс: UTC + 3


Вы не можете начинать темы
Вы не можете отвечать на сообщения
Вы не можете редактировать свои сообщения
Вы не можете удалять свои сообщения
Вы не можете голосовать в опросах
Вы не можете прикреплять файлы к сообщениям
Вы не можете скачивать файлы