(Classical) Johann Friedrich Fasch - Overtures; Concerto; Sonatas for Oboes and Bassoon - Virtuosi Saxoniae, Guttler, Glaetzner, Goritzki, Reinhardt, Klepel, Pank, Beyer, Schornsheim - 2CD - 2013, FLAC (image+.cue) lossless


 

[Цитировать]

Johann Friedrich Fasch - Overtures; Concerto; Sonatas for Oboes and Bassoon - Virtuosi Saxoniae, Güttler, Glaetzner, Goritzki, Reinhardt, Klepel, Pank, Beyer, Schornsheim
Жанр: Classical
Год издания диска: 2013
Издатель (лейбл): Brilliant Classics
Номер по каталогу: 94673
Дата записи: 1986, 1987
Аудиокодек: FLAC
Тип рипа: image+.cue
Битрейт аудио: lossless
Продолжительность: 2:12:35
Источник: собственный рип
Наличие сканов в содержимом раздачи: да
Треклист:
Johann Friedrich Fasch (1688-1758)
CD1
[1]-[6] Overture in D minor for three flutes, three oboes, bassoon, strings and basso continuo
[7]-[9] Concerto in D major for two corni da caccia, two oboes, bassoon, strings and basso continuo
[10]-[16] Overture in B flat major a due cori each with three flutes, three oboes, bassoon, strings and basso continuo
CD2
[1]-[4] Sonata in G minor for two oboes, bassoon and basso continuo
[5]-[9] Sonata in F major for two oboes and bassoon
[10]-[13] Sonata in B flat major for two oboes, bassoon and basso continuo
[14]-[17] Sonata in D minor for two oboes and bassoon
[18]-[21] Sonata (Quattro) in F major for two oboes and two bassoons
[22]-[25] Sonata in F major for two oboes, bassoon and basso continuo
Исполнители:
CD1
Virtuosi Saxoniae
Ludwig Güttler
corno da caccia I & concert master
CD2
Burkhard Glaetzner, Ingo Goritzki oboes
Thomas Reinhardt, Lutz Klepel bassoons
Siegfried Pank viola da gamba
Achim Beyer violone
Christine Schornsheim harpsichord

Лог создания рипа: CD1

Exact Audio Copy V1.0 beta 3 from 29. August 2011
EAC extraction logfile from 25. April 2014, 8:28
Virtuosi Saxoniae, Ludwig Güttler / Fasch - Instrumental Music - CD1 - Overtures and Concertos
Used drive : HL-DT-STDVDRAM GSA-4083N Adapter: 1 ID: 0
Read mode : Secure
Utilize accurate stream : Yes
Defeat audio cache : Yes
Make use of C2 pointers : No
Read offset correction : 667
Overread into Lead-In and Lead-Out : No
Fill up missing offset samples with silence : Yes
Delete leading and trailing silent blocks : No
Null samples used in CRC calculations : Yes
Used interface : Native Win32 interface for Win NT & 2000
Used output format : User Defined Encoder
Selected bitrate : 896 kBit/s
Quality : High
Add ID3 tag : No
Command line compressor : C:\Program Files\Exact Audio Copy\Flac\flac.exe
Additional command line options : -V -8 %source%
TOC of the extracted CD
Track | Start | Length | Start sector | End sector
---------------------------------------------------------
1 | 0:00.00 | 6:28.30 | 0 | 29129
2 | 6:28.30 | 9:45.07 | 29130 | 73011
3 | 16:13.37 | 2:11.18 | 73012 | 82854
4 | 18:24.55 | 6:52.32 | 82855 | 113786
5 | 25:17.12 | 2:14.65 | 113787 | 123901
6 | 27:32.02 | 6:08.50 | 123902 | 151551
7 | 33:40.52 | 4:53.48 | 151552 | 173574
8 | 38:34.25 | 2:24.60 | 173575 | 184434
9 | 40:59.10 | 3:56.07 | 184435 | 202141
10 | 44:55.17 | 7:01.53 | 202142 | 233769
11 | 51:56.70 | 2:39.25 | 233770 | 245719
12 | 54:36.20 | 1:27.17 | 245720 | 252261
13 | 56:03.37 | 2:35.13 | 252262 | 263899
14 | 58:38.50 | 4:25.40 | 263900 | 283814
15 | 63:04.15 | 2:36.45 | 283815 | 295559
16 | 65:40.60 | 4:18.30 | 295560 | 314939
Range status and errors
Selected range
Filename J:\New Music\Fasch - Instrumental Music\Fasch - Instrumental Music - CD1.wav
Peak level 100.0 %
Extraction speed 2.8 X
Range quality 100.0 %
Test CRC B9A85A41
Copy CRC B9A85A41
Copy OK
No errors occurred
AccurateRip summary
Track 1 cannot be verified as accurate (confidence 3) [24A306EA], AccurateRip returned [027E5467] (AR v2)
Track 2 cannot be verified as accurate (confidence 3) [DC260216], AccurateRip returned [6DE8EB92] (AR v2)
Track 3 cannot be verified as accurate (confidence 3) [9B719704], AccurateRip returned [BFE4A23B] (AR v2)
Track 4 cannot be verified as accurate (confidence 3) [A773965E], AccurateRip returned [B34D088F] (AR v2)
Track 5 cannot be verified as accurate (confidence 3) [F7FBE027], AccurateRip returned [BFCFE8E8] (AR v2)
Track 6 cannot be verified as accurate (confidence 3) [5F506467], AccurateRip returned [928B0314] (AR v2)
Track 7 cannot be verified as accurate (confidence 3) [05719F2C], AccurateRip returned [DE6696A4] (AR v2)
Track 8 cannot be verified as accurate (confidence 3) [06D97CBC], AccurateRip returned [E83AB9F3] (AR v2)
Track 9 cannot be verified as accurate (confidence 3) [CAF997EB], AccurateRip returned [2667B3EE] (AR v2)
Track 10 cannot be verified as accurate (confidence 3) [2687B44F], AccurateRip returned [99B07A38] (AR v2)
Track 11 cannot be verified as accurate (confidence 3) [207BBA3E], AccurateRip returned [67C19394] (AR v2)
Track 12 cannot be verified as accurate (confidence 3) [DC873E7D], AccurateRip returned [7D7C07A6] (AR v2)
Track 13 cannot be verified as accurate (confidence 3) [8FAB61AE], AccurateRip returned [F6072E1F] (AR v2)
Track 14 cannot be verified as accurate (confidence 3) [012D94F5], AccurateRip returned [6FB77ADC] (AR v2)
Track 15 cannot be verified as accurate (confidence 3) [8351F301], AccurateRip returned [A1D5C64F] (AR v2)
Track 16 cannot be verified as accurate (confidence 3) [8078F105], AccurateRip returned [7ED4B2AD] (AR v2)
No tracks could be verified as accurate
You may have a different pressing from the one(s) in the database
End of status report
==== Log checksum 738C0E57FD372D25A09954541140CE49CE807EC448CE89DCED57552FAEEB4A67 ====

Лог создания рипа: CD2

Exact Audio Copy V1.0 beta 3 from 29. August 2011
EAC extraction logfile from 26. April 2014, 1:56
Burkhard Glaetzner; Ingo Goritzki; Thomas Reinhardt; Lutz Klepel; Siegfried Pank; Achim Beyer; Christine Schornsheim / Fasch - Instrumental Music - CD2
Used drive : HL-DT-STDVDRAM GSA-4083N Adapter: 1 ID: 0
Read mode : Secure
Utilize accurate stream : Yes
Defeat audio cache : Yes
Make use of C2 pointers : No
Read offset correction : 667
Overread into Lead-In and Lead-Out : No
Fill up missing offset samples with silence : Yes
Delete leading and trailing silent blocks : No
Null samples used in CRC calculations : Yes
Used interface : Native Win32 interface for Win NT & 2000
Used output format : User Defined Encoder
Selected bitrate : 896 kBit/s
Quality : High
Add ID3 tag : No
Command line compressor : C:\Program Files\Exact Audio Copy\Flac\flac.exe
Additional command line options : -V -8 %source%
TOC of the extracted CD
Track | Start | Length | Start sector | End sector
---------------------------------------------------------
1 | 0:00.00 | 2:02.10 | 0 | 9159
2 | 2:02.10 | 2:17.05 | 9160 | 19439
3 | 4:19.15 | 2:10.25 | 19440 | 29214
4 | 6:29.40 | 2:24.07 | 29215 | 40021
5 | 8:53.47 | 2:24.18 | 40022 | 50839
6 | 11:17.65 | 3:35.12 | 50840 | 66976
7 | 14:53.02 | 3:00.35 | 66977 | 80511
8 | 17:53.37 | 2:03.48 | 80512 | 89784
9 | 19:57.10 | 2:08.35 | 89785 | 99419
10 | 22:05.45 | 2:14.22 | 99420 | 109491
11 | 24:19.67 | 2:04.50 | 109492 | 118841
12 | 26:24.42 | 2:38.28 | 118842 | 130719
13 | 29:02.70 | 3:29.50 | 130720 | 146444
14 | 32:32.45 | 1:57.45 | 146445 | 155264
15 | 34:30.15 | 3:16.32 | 155265 | 169996
16 | 37:46.47 | 2:29.05 | 169997 | 181176
17 | 40:15.52 | 3:47.65 | 181177 | 198266
18 | 44:03.42 | 2:13.60 | 198267 | 208301
19 | 46:17.27 | 1:31.73 | 208302 | 215199
20 | 47:49.25 | 1:48.65 | 215200 | 223364
21 | 49:38.15 | 1:49.30 | 223365 | 231569
22 | 51:27.45 | 2:14.07 | 231570 | 241626
23 | 53:41.52 | 4:08.18 | 241627 | 260244
24 | 57:49.70 | 2:18.15 | 260245 | 270609
25 | 60:08.10 | 2:27.65 | 270610 | 281699
Range status and errors
Selected range
Filename J:\New Music\Fasch - Instrumental Music\Fasch - Instrumental Music - CD2.wav
Peak level 100.0 %
Extraction speed 2.7 X
Range quality 100.0 %
Test CRC 4797A958
Copy CRC 4797A958
Copy OK
No errors occurred
AccurateRip summary
Track 1 cannot be verified as accurate (confidence 3) [B55CCEDB], AccurateRip returned [325D8411] (AR v2)
Track 2 cannot be verified as accurate (confidence 3) [CEA9A703], AccurateRip returned [95B69073] (AR v2)
Track 3 cannot be verified as accurate (confidence 3) [BF6C4AB5], AccurateRip returned [16BDEC45] (AR v2)
Track 4 cannot be verified as accurate (confidence 3) [BCCA5F0F], AccurateRip returned [AA82A5BE] (AR v2)
Track 5 cannot be verified as accurate (confidence 3) [BA5296FD], AccurateRip returned [7788D30A] (AR v2)
Track 6 cannot be verified as accurate (confidence 3) [A186DF29], AccurateRip returned [8C17A88C] (AR v2)
Track 7 cannot be verified as accurate (confidence 3) [2FC6AD03], AccurateRip returned [8914FBC6] (AR v2)
Track 8 cannot be verified as accurate (confidence 3) [47F76D3F], AccurateRip returned [90B18AA6] (AR v2)
Track 9 cannot be verified as accurate (confidence 3) [EDE95BC7], AccurateRip returned [D9C799A1] (AR v2)
Track 10 cannot be verified as accurate (confidence 3) [79B06994], AccurateRip returned [6A3212EE] (AR v2)
Track 11 cannot be verified as accurate (confidence 3) [6BC79351], AccurateRip returned [DF353E1C] (AR v2)
Track 12 cannot be verified as accurate (confidence 3) [C5CCA37D], AccurateRip returned [453F8CD8] (AR v2)
Track 13 cannot be verified as accurate (confidence 3) [3E8B5B55], AccurateRip returned [1E4C2DBE] (AR v2)
Track 14 cannot be verified as accurate (confidence 3) [A3AB511C], AccurateRip returned [966A72BB] (AR v2)
Track 15 cannot be verified as accurate (confidence 3) [04FE7C12], AccurateRip returned [62A7F22C] (AR v2)
Track 16 cannot be verified as accurate (confidence 3) [B41C1047], AccurateRip returned [6B0578E2] (AR v2)
Track 17 cannot be verified as accurate (confidence 3) [16BB99EB], AccurateRip returned [66807C08] (AR v2)
Track 18 cannot be verified as accurate (confidence 3) [0026AD8A], AccurateRip returned [498414E1] (AR v2)
Track 19 cannot be verified as accurate (confidence 3) [D3435420], AccurateRip returned [715A18D9] (AR v2)
Track 20 cannot be verified as accurate (confidence 3) [22715664], AccurateRip returned [BD86DBB4] (AR v2)
Track 21 cannot be verified as accurate (confidence 3) [21ABC386], AccurateRip returned [E6D09EEA] (AR v2)
Track 22 cannot be verified as accurate (confidence 3) [5D211D5C], AccurateRip returned [5667416F] (AR v2)
Track 23 cannot be verified as accurate (confidence 3) [87073F61], AccurateRip returned [FFFB994A] (AR v2)
Track 24 cannot be verified as accurate (confidence 3) [2E880093], AccurateRip returned [43310833] (AR v2)
Track 25 cannot be verified as accurate (confidence 3) [A97A5482], AccurateRip returned [66E7BB29] (AR v2)
No tracks could be verified as accurate
You may have a different pressing from the one(s) in the database
End of status report
==== Log checksum B0A2A2CC2ED496B0724A856F07F2F7845B6123FF61386A28ECE2CDC516B4BDC1 ====



Показать сообщения:    

Текущее время: 08-Дек 01:19

Часовой пояс: UTC + 3


Вы не можете начинать темы
Вы не можете отвечать на сообщения
Вы не можете редактировать свои сообщения
Вы не можете удалять свои сообщения
Вы не можете голосовать в опросах
Вы не можете прикреплять файлы к сообщениям
Вы не можете скачивать файлы