Йога-терапия бронхиальной астмы [2006, Хатха-йога, DVDRip, RUS] (Видеоурок)


Статистика раздачи [Обновить пиров]
Размер:  996 MB   |    Зарегистрирован:  8 месяцев 19 дней   |    Скачан:  0 раз

Полного источника не было: Никогда

Личеров:  3  [  0 KB/s  ]   Подробная статистика пиров
 
   
 
 
 

[Цитировать]

Йога-терапия бронхиальной астмы
Страна: Индия
Тематика: Хатха-йога
Жанр: Видеоурок
Год выпуска:2006
Продолжительность: 01:07:10
Язык: Русский
Перевод: Авторский (одноголосый)
Описание: Руководитель Института йога-терапии им. Вивекананды, доктор аюрведы и йога-терапии из южно-индийского штата Тамил-Наду, Мунусами Мадаван принадлежит к южно-индийской ветви традиции Свами Шивананды и специализируется на обучении пранаяме и йога-терапии.Йогачарья Мадаван закончил Venkatramana Aurvedic Medical College в Чаннае, институт йога-терапии Vivekanda Yoga Anusandhana Samsthana в Бангалоре, ТТС и АТТС в Shivananda Yoga Vedanta ашраме, получил посвящение у Свами Чидананды, ученика и преемника Свами Шивананды в Ришикеше. В своем преподавании он основывается на древнем тамильском священном писании «Тирумандирам», наставления по которому он получил по семейной линии от своего отца, который всю жизнь практикует йогу и медитацию. Мунусами Мадаван является наставником в практиках шаткарм и пранаямы целого ряда инструкторов центра Йога108.
Качество видео: DVDRip
Формат видео: MPEG-4
Видео кодек: x264
Аудио кодек: AAC
Видео: AVC, 720x576, 25.000 fps, 1949 kbps
Аудио: AAC, 48 kHz, 2.0 (stereo), 126 kbps

MediaInfo

== Общие ===
Полное имя : Yogaterapiya.bronhialnoy.astmy.2006.mp4
Формат : MPEG-4
Профиль формата : Base Media / Version 2
Идентификатор кодека : mp42
Размер файла : 996 Мб
Длительность : 1ч 7мин
Режим общего битрейта : Переменный
Общий битрейт : 2 074 кбит/сек
Дата кодирования : UTC 2013-11-15 12:02:18
Дата описания : UTC 2013-11-15 12:35:12
Програмное обеспечение : HandBrake 0.9.4 2009112300
=== Видео ===
ID (Идентификатор) : 1
Формат : AVC
Описание формата : Advanced Video Codec
Профиль формата : Main@L3.0
Параметр 'CABAC' : Да
Параметр 'ReFrames' : 2 frames
Идентификатор кодека : avc1
Информация о кодеке : Advanced Video Coding
Длительность : 1ч 7мин
Тип битрейта : Переменный
Битрейт : 1 949 кбит/сек
Ширина кадра : 720 пикселей
Высота кадра : 576 пикселей
Соотношение сторон : 4:3
Original display aspect ratio : 4:3
Тип частоты кадров : Переменный
Частота кадров : 25.000 кадров/сек
Minimum frame rate : 12.502 fps
Maximum frame rate : 25.000 fps
Стандарт : PAL
Цветовое пространство : YUV
Субдискретизация насыщенности : 4:2:0
Глубина (разрядность) : 8 bits
Тип развертки : Прогрессивная
Бит/(пиксель*кадр) : 0.188
Размер потока : 934 Мб (94%)
Кодирующая библиотека : x264 core 79 r1347 5ddd61b
Параметры кодирования : cabac=1 / ref=2 / deblock=1:0:0 / analyse=0x1:0x111 / me=hex / subme=6 / psy=1 / psy_rd=1.0:0.0 / mixed_ref=0 / me_range=16 / chroma_me=1 / trellis=0 / 8x8dct=0 / cqm=0 / deadzone=21,11 / chroma_qp_offset=-2 / threads=6 / nr=0 / decimate=1 / mbaff=0 / constrained_intra=0 / bframes=2 / b_pyramid=0 / b_adapt=1 / b_bias=0 / direct=1 / wpredb=0 / wpredp=2 / keyint=250 / keyint_min=25 / scenecut=40 / rc_lookahead=40 / rc=abr / mbtree=1 / bitrate=1949 / ratetol=1.0 / qcomp=0.60 / qpmin=10 / qpmax=51 / qpstep=4 / ip_ratio=1.40 / aq=1:1.00
Дата кодирования : UTC 2013-11-15 12:02:18
Дата описания : UTC 2013-11-15 12:35:12
Color primaries : BT.601-6 525, BT.1358 525, BT.1700 NTSC, SMPTE 170M
Transfer characteristics : BT.709-5, BT.1361
Matrix coefficients : BT.601-6 525, BT.1358 525, BT.1700 NTSC, SMPTE 170M
=== Аудио ===
ID (Идентификатор) : 2
Формат : AAC
Описание формата : Advanced Audio Codec
Профиль формата : LC
Идентификатор кодека : 40
Длительность : 1ч 7мин
Тип битрейта : Переменный
Битрейт : 126 кбит/сек
Максимальный битрейт : 195 кбит/сек
Канал(ы) : 2 каналов
Расположение каналов : Front: L R
Частота дискретизации : 48.0 кГц
Режим сжатия : С потерями
Размер потока : 60.7 Мб (6%)
Язык : Russian
Дата кодирования : UTC 2013-11-15 12:02:18
Дата описания : UTC 2013-11-15 12:35:12
=== Текст ===
ID (Идентификатор) : 3
Формат : Apple text
Идентификатор кодека : Текст
Длительность : 1ч 7мин
Тип битрейта : Постоянный
Битрейт : 0
Размер потока : 168 байт (0%)
Дата кодирования : UTC 2013-11-15 12:02:18
Дата описания : UTC 2013-11-15 12:35:12

Скриншоты

[teatrix.ru].t18921.torrent 
Торрент: Зарегистрирован [ 2016-03-18 12:23 ] · D24DACDCDDEF04AEB59F2A4A5DFCACC3553EF6B1

Скачать .torrent

Скачать

20 KB

Статус: проверено
Скачан: 0 раз
Размер: 996 MB
terms.php



Быстрый ответ

Имя:

      
Для отправки сообщений необходимо включить JavaScript
Показать сообщения:    

Текущее время: 06-Дек 22:50

Часовой пояс: UTC + 3


Вы можете начинать темы
Вы можете отвечать на сообщения
Вы не можете редактировать свои сообщения
Вы не можете удалять свои сообщения
Вы не можете голосовать в опросах
Вы не можете прикреплять файлы к сообщениям
Вы можете скачивать файлы