Старая пластинка. Boney M. [2014, Биографический фильм, DVB]


Статистика раздачи [Обновить пиров]
Размер:  788 MB   |    Зарегистрирован:  8 месяцев 22 дня   |    Скачан:  0 раз

Полного источника не было: Никогда

Личеров:  3  [  0 KB/s  ]   Подробная статистика пиров
 
   
 
 
 

[Цитировать]

Старая пластинка. Boney M. Дата/Год выпуска: 2014
Страна: Россия
Жанр: Биографический фильм
Продолжительность: 00:21:18
Перевод: Не требуется
Субтитры: нет
Телеканал: Шансон ТВ
Режиссёр: Минаев Алексей
Описание:
Boney M в старой пластинке - история самой известной и популярной диско группы в мире
Доп. информация: Запись со спутника телеканал "Шансон ТВ"
Качество: DVB
Формат: TS
Видео: H.264, 720x576, 4:3, 4761 kbps, 25 fps
Аудио: Mp2, 192 kbps, 48.0 kHz, 2 ch

MediaInfo

Общее
Идентификатор : 1 (0x1)
Полное имя : D:\Раздачи\Старая пластинка - Boney M.ts
Формат : MPEG-TS
Размер файла : 788 Мбайт
Продолжительность : 21 м.
Режим общего битрейта : Переменный
Общий поток : 5167 Кбит/сек
Видео
Идентификатор : 4096 (0x1000)
Идентификатор меню : 1 (0x1)
Формат : AVC
Формат/Информация : Advanced Video Codec
Профиль формата : Main@L3.1
Параметр CABAC формата : Да
Параметр ReFrames формата : 3 кадра
Параметр GOP формата : M=2, N=33
Идентификатор кодека : 27
Продолжительность : 21 м.
Вид битрейта : Постоянный
Битрейт : 4761 Кбит/сек
Ширина : 720 пикселей
Высота : 576 пикселей
Соотношение сторон : 4:3
Частота кадров : 25,000 кадров/сек
Стандарт вещания : PAL
Цветовое пространство : YUV
Субдискретизация насыщенности : 4:2:0
Битовая глубина : 8 бит
Тип развёртки : Прогрессивная
Бит/(Пиксели*Кадры) : 0.459
Размер потока : 719 Мбайт (91%)
Аудио
Идентификатор : 4097 (0x1001)
Идентификатор меню : 1 (0x1)
Формат : MPEG Audio
Версия формата : Version 1
Профиль формата : Layer 2
Идентификатор кодека : 3
Продолжительность : 21 м.
Вид битрейта : Постоянный
Битрейт : 192 Кбит/сек
Каналы : 2 канала
Частота : 48,0 КГц
Метод сжатия : С потерями
Задержка видео : 15 мс.
Размер потока : 29,3 Мбайт (4%)
Язык : Russian

Скриншоты

[teatrix.ru].t18922.torrent 
Торрент: Зарегистрирован [ 2016-03-18 12:22 ] · 3D7102CD683BEF67006BCFF4B1D46E8DE236A4E0

Скачать .torrent

Скачать

16 KB

Статус: проверено
Скачан: 0 раз
Размер: 788 MB
terms.php



Быстрый ответ

Имя:

      
Для отправки сообщений необходимо включить JavaScript
Показать сообщения:    

Текущее время: 10-Дек 00:22

Часовой пояс: UTC + 3


Вы можете начинать темы
Вы можете отвечать на сообщения
Вы не можете редактировать свои сообщения
Вы не можете удалять свои сообщения
Вы не можете голосовать в опросах
Вы не можете прикреплять файлы к сообщениям
Вы можете скачивать файлы