(Classical) Karol Szymanowski - Stabat Mater; Harnasie - Crowe, Stephen, Murray, Bretz, BBC Symphony Chorus & Orchestra, Edward Gardner - 2013, FLAC (image+.cue) lossless


Статистика раздачи [Обновить пиров]
Размер:  233 MB   |    Зарегистрирован:  8 месяцев 19 дней   |    Скачан:  0 раз

Полного источника не было: Никогда

Личеров:  9  [  0 KB/s  ]   Подробная статистика пиров
 
   
 
 
 

[Цитировать]

Karol Szymanowski - Stabat Mater; Harnasie - Crowe, Stephen, Murray, Bretz, BBC Symphony Chorus & Orchestra, Edward Gardner
Жанр: Classical
Страна-производитель диска: UK
Год издания диска: 2013
Издатель (лейбл): Chandos Records
Номер по каталогу: CHSA 5123
Дата записи: 2013
Аудиокодек: FLAC
Тип рипа: image+.cue
Битрейт аудио: lossless
Продолжительность: 58:36
Источник: собственный рип
Наличие сканов в содержимом раздачи: да
Треклист:
Karol Szymanowski (1882 – 1937)
[1]-[6] Stabat Mater, Op. 53 (1925 – 26)*
[7]-[17] Harnasie, Op. 55 (1923 – 31)†
Góral Ballet in One Act, in Two Scenes
Исполнители:
Lucy Crowe soprano*
Pamela Helen Stephen mezzo-soprano*
Robert Murray tenor†
Gábor Bretz baritone*
BBC Symphony Chorus
BBC Symphony Orchestra
Edward Gardner

Лог создания рипа

Exact Audio Copy V1.0 beta 3 from 29. August 2011
EAC extraction logfile from 22. May 2014, 1:55
BBC SO and Chorus, Edward Gardner / Szymanowski - Stabat Mater; Harnasie
Used drive : HL-DT-STDVDRAM GSA-4083N Adapter: 1 ID: 0
Read mode : Secure
Utilize accurate stream : Yes
Defeat audio cache : Yes
Make use of C2 pointers : No
Read offset correction : 667
Overread into Lead-In and Lead-Out : No
Fill up missing offset samples with silence : Yes
Delete leading and trailing silent blocks : No
Null samples used in CRC calculations : Yes
Used interface : Native Win32 interface for Win NT & 2000
Used output format : User Defined Encoder
Selected bitrate : 896 kBit/s
Quality : High
Add ID3 tag : No
Command line compressor : C:\Program Files\Exact Audio Copy\Flac\flac.exe
Additional command line options : -V -8 %source%
TOC of the extracted CD
Track | Start | Length | Start sector | End sector
---------------------------------------------------------
1 | 0:00.00 | 6:31.18 | 0 | 29342
2 | 6:31.18 | 2:25.25 | 29343 | 40242
3 | 8:56.43 | 3:59.70 | 40243 | 58237
4 | 12:56.38 | 2:52.25 | 58238 | 71162
5 | 15:48.63 | 2:46.45 | 71163 | 83657
6 | 18:35.33 | 4:59.15 | 83658 | 106097
7 | 23:34.48 | 4:57.00 | 106098 | 128372
8 | 28:31.48 | 2:11.00 | 128373 | 138197
9 | 30:42.48 | 1:35.25 | 138198 | 145347
10 | 32:17.73 | 3:49.20 | 145348 | 162542
11 | 36:07.18 | 4:39.65 | 162543 | 183532
12 | 40:47.08 | 2:25.55 | 183533 | 194462
13 | 43:12.63 | 1:59.30 | 194463 | 203417
14 | 45:12.18 | 1:14.18 | 203418 | 208985
15 | 46:26.36 | 3:50.42 | 208986 | 226277
16 | 50:17.03 | 5:23.45 | 226278 | 250547
17 | 55:40.48 | 2:54.27 | 250548 | 263624
Range status and errors
Selected range
Filename J:\New Music\CHSA_05123 - Szymanowski - Stabat Mater; Harnasie (Chandos)\Szymanowski - Stabat Mater; Harnasie.wav
Peak level 99.0 %
Extraction speed 2.6 X
Range quality 100.0 %
Test CRC 7E2EBF44
Copy CRC 7E2EBF44
Copy OK
No errors occurred
AccurateRip summary
Track 1 accurately ripped (confidence 4) [D3C0DDED] (AR v2)
Track 2 accurately ripped (confidence 4) [2B3C6579] (AR v2)
Track 3 accurately ripped (confidence 4) [081AEEEE] (AR v2)
Track 4 accurately ripped (confidence 4) [5F27C5D0] (AR v2)
Track 5 accurately ripped (confidence 4) [3EE027A9] (AR v2)
Track 6 accurately ripped (confidence 4) [B295BD26] (AR v2)
Track 7 accurately ripped (confidence 4) [4750F932] (AR v2)
Track 8 accurately ripped (confidence 4) [DE02A5C9] (AR v2)
Track 9 accurately ripped (confidence 4) [D4854620] (AR v2)
Track 10 accurately ripped (confidence 4) [0504E036] (AR v2)
Track 11 accurately ripped (confidence 4) [1DC4BCF2] (AR v2)
Track 12 accurately ripped (confidence 4) [40359382] (AR v2)
Track 13 accurately ripped (confidence 4) [82B1B0BE] (AR v2)
Track 14 accurately ripped (confidence 4) [5734857C] (AR v2)
Track 15 accurately ripped (confidence 4) [DCDD435B] (AR v2)
Track 16 accurately ripped (confidence 4) [90F328A2] (AR v2)
Track 17 accurately ripped (confidence 4) [85C93A54] (AR v2)
All tracks accurately ripped
End of status report
==== Log checksum 44898510D3E0EF41D1E90CF8E98AAA0211E312B77AB1BB27BC2124B8B772BAC9 ====
[teatrix.ru].t18924.torrent 
Торрент: Зарегистрирован [ 2016-03-18 12:22 ] · 28B4E423237D4BADC00A32157FFE456E3C2F8938

Скачать .torrent

Скачать

38 KB

Статус: проверено
Скачан: 0 раз
Размер: 233 MB
terms.php



Быстрый ответ

Имя:

      
Для отправки сообщений необходимо включить JavaScript
Показать сообщения:    

Текущее время: 06-Дек 22:51

Часовой пояс: UTC + 3


Вы можете начинать темы
Вы можете отвечать на сообщения
Вы не можете редактировать свои сообщения
Вы не можете удалять свои сообщения
Вы не можете голосовать в опросах
Вы не можете прикреплять файлы к сообщениям
Вы можете скачивать файлы