(Classical) Max Reger, Rudolf Tobias - Choral Works - Estonian Philharmonic Chamber Choir, Daniel Reuss - 2013, FLAC (image+.cue) lossless


Статистика раздачи [Обновить пиров]
Размер:  225 MB   |    Зарегистрирован:  8 месяцев 20 дней   |    Скачан:  0 раз

Полного источника не было: Никогда

Личеров:  9  [  0 KB/s  ]   Подробная статистика пиров
 
   
 
 
 

[Цитировать]

Max Reger, Rudolf Tobias - Choral Works - Estonian Philharmonic Chamber Choir, Daniel Reuss
Жанр: Classical
Страна-производитель диска: Finland
Год издания диска: 2013
Издатель (лейбл): Ondine
Номер по каталогу: ODE 1221-2
Дата записи: 2012
Аудиокодек: FLAC
Тип рипа: image+.cue
Битрейт аудио: lossless
Продолжительность: 62:04
Источник: собственный рип
Наличие сканов в содержимом раздачи: да
Треклист:
Rudolf Tobias (1873–1918)
[1] Otsekui hirv*
[2] Kleine Karfreitagsmotette
[3] Oster Vorspiel
[4] Ostermorgen
Max Reger (1873–1916)
[5] Melodie, Op. 59/11**
[6] Unser lieben Frauen Traum, Op. 138/4
[7] Der Mensch lebt und bestehet nur eine kleine Zeit, Op. 138/1
[8] Nachtlied, Op. 138/3
Rudolf Tobias
[9] Nun ruhen alle Wälder**
[10] Ascendit in coelum
[11] Vivit!
[12] Liberi Dei
Max Reger
[13] Zur Nacht, Op. 6/2***
[14] Abendlied, Op. 6/3***
[15] Abendlied, Op. 39/2
Rudolf Tobias
[16] Eks teie tea
Рудольф Тобиас - первый эстонский композитор "с дипломом", закончил Санкт-Петербургскую консерваторию (1897) по классу органа и композиции. Жил и работал в Санкт-Петербурге, Тарту и, с 1908 года, в Германии. Значительную часть в корпусе его сочинений составляет духовная хоровая музыка.
Исполнители:
Estonian Philharmonic Chamber Choir
Daniel Reuss
conductor
* Choir accompanied by Ene Salumäe (organ)
** Ene Salumäe (organ)
*** Choir accompanied by Siim Selis (piano)

Лог создания рипа

Exact Audio Copy V1.0 beta 3 from 29. August 2011
EAC extraction logfile from 9. June 2014, 0:14
Estonian Philharmonic Chamber Choir, Daniel Reuss / Max Reger, Rudolf Tobias - Choral Works
Used drive : HL-DT-STDVDRAM GSA-4083N Adapter: 1 ID: 0
Read mode : Secure
Utilize accurate stream : Yes
Defeat audio cache : Yes
Make use of C2 pointers : No
Read offset correction : 667
Overread into Lead-In and Lead-Out : No
Fill up missing offset samples with silence : Yes
Delete leading and trailing silent blocks : No
Null samples used in CRC calculations : Yes
Used interface : Native Win32 interface for Win NT & 2000
Used output format : User Defined Encoder
Selected bitrate : 896 kBit/s
Quality : High
Add ID3 tag : No
Command line compressor : C:\Program Files\Exact Audio Copy\Flac\flac.exe
Additional command line options : -V -8 %source%
TOC of the extracted CD
Track | Start | Length | Start sector | End sector
---------------------------------------------------------
1 | 0:00.00 | 6:00.45 | 0 | 27044
2 | 6:00.45 | 3:04.43 | 27045 | 40887
3 | 9:05.13 | 1:40.33 | 40888 | 48420
4 | 10:45.46 | 1:47.18 | 48421 | 56463
5 | 12:32.64 | 4:54.07 | 56464 | 78520
6 | 17:26.71 | 2:15.07 | 78521 | 88652
7 | 19:42.03 | 2:55.09 | 88653 | 101786
8 | 22:37.12 | 3:38.35 | 101787 | 118171
9 | 26:15.47 | 4:55.10 | 118172 | 140306
10 | 31:10.57 | 2:57.36 | 140307 | 153617
11 | 34:08.18 | 4:48.23 | 153618 | 175240
12 | 38:56.41 | 4:00.16 | 175241 | 193256
13 | 42:56.57 | 2:11.07 | 193257 | 203088
14 | 45:07.64 | 4:20.31 | 203089 | 222619
15 | 49:28.20 | 5:09.46 | 222620 | 245840
16 | 54:37.66 | 4:19.07 | 245841 | 265272
Range status and errors
Selected range
Filename J:\New Music\Max Reger, Rudolf Tobias - Choral Works\Max Reger, Rudolf Tobias - Choral Works.wav
Peak level 95.1 %
Extraction speed 3.5 X
Range quality 100.0 %
Test CRC A682F118
Copy CRC A682F118
Copy OK
No errors occurred
AccurateRip summary
Track 1 accurately ripped (confidence 1) [FB17DF73] (AR v2)
Track 2 accurately ripped (confidence 1) [AB91B8C4] (AR v2)
Track 3 accurately ripped (confidence 1) [CB344651] (AR v2)
Track 4 accurately ripped (confidence 1) [FA295F93] (AR v2)
Track 5 accurately ripped (confidence 1) [CA920006] (AR v2)
Track 6 accurately ripped (confidence 1) [D4013F3E] (AR v2)
Track 7 accurately ripped (confidence 1) [77FF13E3] (AR v2)
Track 8 accurately ripped (confidence 1) [9F5B03CF] (AR v2)
Track 9 accurately ripped (confidence 1) [6137B17F] (AR v2)
Track 10 accurately ripped (confidence 1) [300BAABF] (AR v2)
Track 11 accurately ripped (confidence 1) [806DA3D0] (AR v2)
Track 12 accurately ripped (confidence 1) [553D6920] (AR v2)
Track 13 accurately ripped (confidence 1) [629F9946] (AR v2)
Track 14 accurately ripped (confidence 1) [000CAD68] (AR v2)
Track 15 accurately ripped (confidence 1) [C70EA63F] (AR v2)
Track 16 accurately ripped (confidence 1) [F6044F16] (AR v2)
All tracks accurately ripped
End of status report
==== Log checksum 5BC6E939498C075B155E824BDB9035E4200237026754BEFC7CE4C28467F8862C ====
[teatrix.ru].t18925.torrent 
Торрент: Зарегистрирован [ 2016-03-18 12:22 ] · 7DDD231691C7744D05D858C5C532009707FA24AA

Скачать .torrent

Скачать

36 KB

Статус: проверено
Скачан: 0 раз
Размер: 225 MB
terms.php



Быстрый ответ

Имя:

      
Для отправки сообщений необходимо включить JavaScript
Показать сообщения:    

Текущее время: 07-Дек 15:29

Часовой пояс: UTC + 3


Вы можете начинать темы
Вы можете отвечать на сообщения
Вы не можете редактировать свои сообщения
Вы не можете удалять свои сообщения
Вы не можете голосовать в опросах
Вы не можете прикреплять файлы к сообщениям
Вы можете скачивать файлы