(Classical) Аренский – Струнные квартеты № 1 и 2; Фортепианный квинтет / Arensky – String Quartets Nos. 1 & 2; Piano Quintet (Prunyi; Lajtha Quartet: Rasonyi, Albert, Kolozsvari, Fenyo) - 1995, FLAC (image+.cue) lossless


 

[Цитировать]

Аренский – Струнные квартеты № 1 и 2; Фортепианный квинтет / Arensky – String Quartets Nos. 1 & 2; Piano Quintet (Prunyi; Lajtha Quartet: Rásonyi, Albert, Kolozsvári, Fenyő)
Жанр: Classical
Страна-производитель диска: Германия
Год издания диска: 1995
Издатель (лейбл): Marco Polo (Naxos)
Номер по каталогу: 8.223811
Дата записи: 16 — 22 января 1994 г., Будапешт.
Аудиокодек: FLAC
Тип рипа: image+.cue
Битрейт аудио: lossless
Продолжительность: 01:06:25
Источник: odeonmusic
Наличие сканов в содержимом раздачи: да
Треклист:
Антон (Антоний) Степанович Аренский (1861 — 1906).
Струнный квартет № 1 G-dur для двух скрипок, альта и виолончели, op. 11 (1888).
01. I. Allegro [07:31].
02. II. Andante sostenuto [03:18].
03. III. Menuetto. Allegretto [02:51].
04. IV. Finale (Вариации на русскую тему). Allegro non troppo [04:08].
Струнный квартет № 2 a-moll для скрипки, альта и двух виолончелей, op. 35 (1894),
оригинальное переложение для двух скрипок, альта и виолончели.

05. I. Moderato [10:07].
06. II. Вариации на тему Чайковского [12:00].
(06.) Тема. Moderato. —
(07.) — Вариация I. Un poco più mosso. —
(08.) — Вариация II. Allegro non troppo. —
(09.) — Вариация III. Andantino tranquillo. —
(10.) — Вариация IV. Vivace. —
(11.) — Вариация V. Andante. —
(12.) — Вариация VI. Allegro con spirito. —
(13.) — Вариация VII. Andante con moto. —
(14.) — Кода. Moderato. — Poco più mosso. — Moderato.
07. III. Finale. Andante sostenuto. — Allegro moderato [04:35].
Фортепианный квинтет D-dur, op. 51 (1900).
08. I. Allegro moderato [06:33].
09. II. Вариации [на тему старинной песни «Sur le pont d'Avignon j'ai ouï chanter la belle»]. Andante [05:45].
10. III. Scherzo. Allegro vivace [06:10].
11. IV. Finale (in modo antico [в старинном стиле]). Allegro moderato [02:45].
Исполнители:
Ilona Prunyi (фортепиано).
Lajtha Quartet:
Leila Rásonyi (скрипка),
György Albert (скрипка),
László Kolozsvári (альт),
László Fenyő (виолончель).

Лог создания рипа

Exact Audio Copy V1.0 beta 3 from 29. August 2011
EAC extraction logfile from 19. March 2014, 9:56
Lajtha Quartet / Arensky - String Quartets, Piano Quintet - Lajtha Quartet
Used drive : TSSTcorpCDDVDW SH-222BB Adapter: 2 ID: 1
Read mode : Secure
Utilize accurate stream : Yes
Defeat audio cache : Yes
Make use of C2 pointers : No
Read offset correction : 6
Overread into Lead-In and Lead-Out : No
Fill up missing offset samples with silence : Yes
Delete leading and trailing silent blocks : No
Null samples used in CRC calculations : Yes
Used interface : Native Win32 interface for Win NT & 2000
Used output format : User Defined Encoder
Selected bitrate : 896 kBit/s
Quality : High
Add ID3 tag : No
Command line compressor : C:\Program Files\Exact Audio Copy\FLAC\FLAC.EXE
Additional command line options : -8 -V -T "TITLE=%title%" -T "ARTIST=%artist%" -T "ALBUMARTIST=%albumartist%" -T "ALBUM=%albumtitle%" -T "DATE=%year%" -T "TRACKNUMBER=%tracknr%" -T "TRACKTOTAL=%numtracks%" -T "GENRE=%genre%" -T "COMMENT=%comment%" -T "PERFORMER=%albuminterpret%" -T "COMPOSER=%composer%" %source% -o %dest%
TOC of the extracted CD
Track | Start | Length | Start sector | End sector
---------------------------------------------------------
1 | 0:00.00 | 7:36.00 | 0 | 34199
2 | 7:36.00 | 3:20.40 | 34200 | 49239
3 | 10:56.40 | 2:51.40 | 49240 | 62104
4 | 13:48.05 | 4:18.63 | 62105 | 81517
5 | 18:06.68 | 10:11.52 | 81518 | 127394
6 | 28:18.45 | 12:03.05 | 127395 | 181624
7 | 40:21.50 | 4:45.10 | 181625 | 203009
8 | 45:06.60 | 6:36.08 | 203010 | 232717
9 | 51:42.68 | 5:46.72 | 232718 | 258739
10 | 57:29.65 | 6:10.58 | 258740 | 286547
11 | 63:40.48 | 2:45.57 | 286548 | 298979
Range status and errors
Selected range
Filename E:\3000\[3574] Arensky – String Quartets, Piano Quintet – Lajtha Quartet\Arensky - String Quartets, Piano Quintet - Lajtha Quartet.wav
Peak level 97.6 %
Extraction speed 6.9 X
Range quality 100.0 %
Test CRC 14A42853
Copy CRC 14A42853
Copy OK
No errors occurred
AccurateRip summary
Track 1 accurately ripped (confidence 2) [EF398EF6] (AR v1)
Track 2 accurately ripped (confidence 2) [622A6997] (AR v1)
Track 3 accurately ripped (confidence 2) [24E6735D] (AR v1)
Track 4 accurately ripped (confidence 2) [59186F57] (AR v1)
Track 5 accurately ripped (confidence 2) [8E7128FE] (AR v1)
Track 6 accurately ripped (confidence 2) [F963FAB4] (AR v1)
Track 7 accurately ripped (confidence 2) [40311F7D] (AR v1)
Track 8 accurately ripped (confidence 2) [7025E3D6] (AR v1)
Track 9 accurately ripped (confidence 2) [B37A2913] (AR v1)
Track 10 accurately ripped (confidence 2) [C51E9D3E] (AR v1)
Track 11 accurately ripped (confidence 2) [8F5193CE] (AR v1)
All tracks accurately ripped
End of status report
==== Log checksum 2B7555EAD4292159C7B15528F0DD5E46AE07D5118D354FFDA53760422FC45C94 ====

Содержание индексной карты (.CUE)

REM GENRE Classsical
REM DISCID 8A0F920B
REM COMMENT "ExactAudioCopy v1.0b3"
PERFORMER "Lajtha Quartet"
TITLE "Arensky – String Quartets & Piano Quintet – Ilona Prunyi & Lajtha Quartet"
FILE "Arensky – String Quartets & Piano Quintet – Ilona Prunyi & Lajtha Quartet.flac" WAVE
TRACK 01 AUDIO
TITLE "String Quartet No. 1 in G Major, Op. 11 - I. Allegro"
PERFORMER "Lajtha Quartet"
INDEX 01 00:00:00
TRACK 02 AUDIO
TITLE "String Quartet No. 1 in G Major, Op. 11 - II. Andante sostenuto"
PERFORMER "Lajtha Quartet"
INDEX 00 07:32:23
INDEX 01 07:36:00
TRACK 03 AUDIO
TITLE "String Quartet No. 1 in G Major, Op. 11 - III. Menuetto. Allegretto"
PERFORMER "Lajtha Quartet"
INDEX 00 10:54:30
INDEX 01 10:56:40
TRACK 04 AUDIO
TITLE "String Quartet No. 1 in G Major, Op. 11 - IV. Finale (Variations sur un theme russe). Allegro non troppo"
PERFORMER "Lajtha Quartet"
INDEX 01 13:48:05
TRACK 05 AUDIO
TITLE "String Quartet No. 2 in A minor, Op. 35 - I. Moderato"
PERFORMER "Lajtha Quartet"
INDEX 00 17:56:48
INDEX 01 18:06:68
TRACK 06 AUDIO
TITLE "String Quartet No. 2 in A minor, Op. 35 - II. Theme and Variations"
PERFORMER "Lajtha Quartet"
INDEX 00 28:14:55
INDEX 01 28:18:45
TRACK 07 AUDIO
TITLE "String Quartet No. 2 in A minor, Op. 35 - III. Finale. Andante sostenuto - Allegro moderato"
PERFORMER "Lajtha Quartet"
INDEX 00 40:18:58
INDEX 01 40:21:50
TRACK 08 AUDIO
TITLE "Piano Quintet in D major, Op. 51 - I. Allegro moderato"
PERFORMER "Lajtha Quartet"
INDEX 00 44:57:10
INDEX 01 45:06:60
TRACK 09 AUDIO
TITLE "Piano Quintet in D major, Op. 51 - II. Variations. Andante - Tempo di valse - Allegro molto - Tempo I"
PERFORMER "Lajtha Quartet"
INDEX 00 51:40:55
INDEX 01 51:42:68
TRACK 10 AUDIO
TITLE "Piano Quintet in D major, Op. 51 - III. Scherzo. Allegro vivace"
PERFORMER "Lajtha Quartet"
INDEX 00 57:27:70
INDEX 01 57:29:65
TRACK 11 AUDIO
TITLE "Piano Quintet in D major, Op. 51 - IV. Finale (Fuga). Allegro moderato"
PERFORMER "Lajtha Quartet"
INDEX 01 63:40:48

Вариант индексной карты (.CUE) с разделением Вариаций на тему Чайковского на отдельные треки

REM GENRE Classsical
REM DISCID 8A0F920B
REM COMMENT "ExactAudioCopy v1.0b3"
PERFORMER "Lajtha Quartet"
TITLE "Arensky – String Quartets & Piano Quintet – Ilona Prunyi & Lajtha Quartet"
FILE "Arensky – String Quartets & Piano Quintet – Ilona Prunyi & Lajtha Quartet.flac" WAVE
TRACK 01 AUDIO
TITLE "String Quartet No. 1 in G Major, Op. 11 - I. Allegro"
PERFORMER "Lajtha Quartet"
INDEX 01 00:00:00
TRACK 02 AUDIO
TITLE "String Quartet No. 1 in G Major, Op. 11 - II. Andante sostenuto"
PERFORMER "Lajtha Quartet"
INDEX 00 07:32:23
INDEX 01 07:36:00
TRACK 03 AUDIO
TITLE "String Quartet No. 1 in G Major, Op. 11 - III. Menuetto. Allegretto"
PERFORMER "Lajtha Quartet"
INDEX 00 10:54:30
INDEX 01 10:56:40
TRACK 04 AUDIO
TITLE "String Quartet No. 1 in G Major, Op. 11 - IV. Finale (Variations sur un theme russe). Allegro non troppo"
PERFORMER "Lajtha Quartet"
INDEX 01 13:48:05
TRACK 05 AUDIO
TITLE "String Quartet No. 2 in A minor, Op. 35 - I. Moderato"
PERFORMER "Lajtha Quartet"
INDEX 00 17:56:48
INDEX 01 18:06:68
TRACK 06 AUDIO
TITLE "String Quartet No. 2 in A minor, Op. 35 - II. Theme and Variations - Theme. Moderato -"
PERFORMER "Lajtha Quartet"
INDEX 00 28:14:55
INDEX 01 28:18:45
TRACK 07 AUDIO
TITLE "String Quartet No. 2 in A minor, Op. 35 - II. Theme and Variations - Var. I. Un poco piu mosso -"
PERFORMER "Lajtha Quartet"
INDEX 01 29:09:67
TRACK 08 AUDIO
TITLE "String Quartet No. 2 in A minor, Op. 35 - II. Theme and Variations - Var. II. Allegro non troppo -"
PERFORMER "Lajtha Quartet"
INDEX 01 30:17:34
TRACK 09 AUDIO
TITLE "String Quartet No. 2 in A minor, Op. 35 - II. Theme and Variations - Var. III. Andantino tranquillo -"
PERFORMER "Lajtha Quartet"
INDEX 01 31:31:11
TRACK 10 AUDIO
TITLE "String Quartet No. 2 in A minor, Op. 35 - II. Theme and Variations - Var. IV. Vivace -"
PERFORMER "Lajtha Quartet"
INDEX 01 33:01:37
TRACK 11 AUDIO
TITLE "String Quartet No. 2 in A minor, Op. 35 - II. Theme and Variations - Var. V. Andante -"
PERFORMER "Lajtha Quartet"
INDEX 01 34:27:46
TRACK 12 AUDIO
TITLE "String Quartet No. 2 in A minor, Op. 35 - II. Theme and Variations - Var. VI. Allegro con spirito -"
PERFORMER "Lajtha Quartet"
INDEX 01 36:13:01
TRACK 13 AUDIO
TITLE "String Quartet No. 2 in A minor, Op. 35 - II. Theme and Variations - Var. VII. Andante con moto -"
PERFORMER "Lajtha Quartet"
INDEX 01 37:44:46
TRACK 14 AUDIO
TITLE "String Quartet No. 2 in A minor, Op. 35 - II. Theme and Variations - Coda. Moderato"
PERFORMER "Lajtha Quartet"
INDEX 01 38:54:23
TRACK 15 AUDIO
TITLE "String Quartet No. 2 in A minor, Op. 35 - III. Finale. Andante sostenuto - Allegro moderato"
PERFORMER "Lajtha Quartet"
INDEX 00 40:18:58
INDEX 01 40:21:50
TRACK 16 AUDIO
TITLE "Piano Quintet in D major, Op. 51 - I. Allegro moderato"
PERFORMER "Ilona Prunyi & Lajtha Quartet"
INDEX 00 44:57:10
INDEX 01 45:06:60
TRACK 17 AUDIO
TITLE "Piano Quintet in D major, Op. 51 - II. Variations. Andante - Tempo di valse - Allegro molto - Tempo I"
PERFORMER "Ilona Prunyi & Lajtha Quartet"
INDEX 00 51:40:55
INDEX 01 51:42:68
TRACK 18 AUDIO
TITLE "Piano Quintet in D major, Op. 51 - III. Scherzo. Allegro vivace"
PERFORMER "Ilona Prunyi & Lajtha Quartet"
INDEX 00 57:27:70
INDEX 01 57:29:65
TRACK 19 AUDIO
TITLE "Piano Quintet in D major, Op. 51 - IV. Finale (Fuga). Allegro moderato"
PERFORMER "Ilona Prunyi & Lajtha Quartet"
INDEX 01 63:40:48



Показать сообщения:    

Текущее время: 10-Дек 08:06

Часовой пояс: UTC + 3


Вы не можете начинать темы
Вы не можете отвечать на сообщения
Вы не можете редактировать свои сообщения
Вы не можете удалять свои сообщения
Вы не можете голосовать в опросах
Вы не можете прикреплять файлы к сообщениям
Вы не можете скачивать файлы