(Classical) Felix Mendelssohn - Piano Trios - Trio Wanderer - 2013, FLAC (image+.cue) lossless


 

[Цитировать]

Felix Mendelssohn - Piano Trios - Trio Wanderer
Жанр: Classical
Страна-производитель диска: France
Год издания диска: 2013
Издатель (лейбл): Harmonia Mundi
Номер по каталогу: HMA1951961
Дата записи: 2006
Аудиокодек: FLAC
Тип рипа: image+.cue
Битрейт аудио: lossless
Продолжительность: 53:09
Источник: собственный рип
Наличие сканов в содержимом раздачи: да
Треклист:
Felix Mendelssohn-Bartholdy (1809-1847)
[1]-[4] Piano Trio No.1 in D minor, Op.49
[5]-[8] Piano Trio No.2 in C minor, Op.66
Исполнители:
Trio Wanderer
Vincent Coq piano
Jean-Marc Phillips-Varjabédian violin
Raphaël Pidoux cello

Лог создания рипа

Exact Audio Copy V1.0 beta 3 from 29. August 2011
EAC extraction logfile from 16. June 2014, 17:30
Trio Wanderer / Mendelssohn - Piano Trios
Used drive : HL-DT-STDVDRRW GWA-4164B Adapter: 5 ID: 0
Read mode : Secure
Utilize accurate stream : Yes
Defeat audio cache : Yes
Make use of C2 pointers : No
Read offset correction : 102
Overread into Lead-In and Lead-Out : No
Fill up missing offset samples with silence : Yes
Delete leading and trailing silent blocks : No
Null samples used in CRC calculations : Yes
Used interface : Native Win32 interface for Win NT & 2000
Used output format : User Defined Encoder
Selected bitrate : 896 kBit/s
Quality : High
Add ID3 tag : No
Command line compressor : C:\Program Files\Exact Audio Copy\FLAC\FLAC.EXE
Additional command line options : -V -8 %source%
TOC of the extracted CD
Track | Start | Length | Start sector | End sector
---------------------------------------------------------
1 | 0:00.00 | 8:46.23 | 0 | 39472
2 | 8:46.23 | 6:36.25 | 39473 | 69197
3 | 15:22.48 | 3:27.02 | 69198 | 84724
4 | 18:49.50 | 8:10.63 | 84725 | 121537
5 | 27:00.38 | 9:32.03 | 121538 | 164440
6 | 36:32.41 | 6:27.73 | 164441 | 193538
7 | 43:00.39 | 3:24.61 | 193539 | 208899
8 | 46:25.25 | 6:42.09 | 208900 | 239058
Range status and errors
Selected range
Filename D:\temp\Music\HMA1951961 - Mendelssohn - Piano Trios (Trio Wanderer - HARMONIA MUNDI)\Mendelssohn - Piano Trios.wav
Peak level 98.6 %
Extraction speed 1.3 X
Range quality 100.0 %
Test CRC FA13EFAA
Copy CRC FA13EFAA
Copy OK
No errors occurred
AccurateRip summary
Track 1 accurately ripped (confidence 3) [E72E1270] (AR v2)
Track 2 accurately ripped (confidence 3) [956B8F97] (AR v2)
Track 3 accurately ripped (confidence 3) [01DB54BD] (AR v2)
Track 4 accurately ripped (confidence 3) [7E9DFEDA] (AR v2)
Track 5 accurately ripped (confidence 3) [07EAAD22] (AR v2)
Track 6 accurately ripped (confidence 3) [377560D4] (AR v2)
Track 7 accurately ripped (confidence 3) [916BFAD1] (AR v2)
Track 8 accurately ripped (confidence 3) [47BD244B] (AR v2)
All tracks accurately ripped
End of status report
==== Log checksum 46DD9E533673FD986BED082C3AFAEE72C9972E1035F1BD53A3FD65CE4FEB63B1 ====



Показать сообщения:    

Текущее время: 10-Дек 17:48

Часовой пояс: UTC + 3


Вы не можете начинать темы
Вы не можете отвечать на сообщения
Вы не можете редактировать свои сообщения
Вы не можете удалять свои сообщения
Вы не можете голосовать в опросах
Вы не можете прикреплять файлы к сообщениям
Вы не можете скачивать файлы