(Classical, sacred) Felix Mendelssohn - Complete Psalm Cantatas - Chamber Choir of Europe, Nicol Matt - 2013, FLAC (image+.cue) lossless


Статистика раздачи [Обновить пиров]
Размер:  351 MB   |    Зарегистрирован:  8 месяцев 16 дней   |    Скачан:  1 раз

Полного источника не было: 1 месяц 1 день

Личеров:  9  [  0 KB/s  ]   Подробная статистика пиров
 
   
 
 
 

[Цитировать]

Felix Mendelssohn - Complete Psalm Cantatas - Chamber Choir of Europe, Nicol Matt
Жанр: Classical, sacred
Год издания диска: 2013
Издатель (лейбл): Brilliant Classics
Номер по каталогу: 94603
Дата записи: 2002
Аудиокодек: FLAC
Тип рипа: image+.cue
Битрейт аудио: lossless
Продолжительность: 80:38
Источник: собственный рип
Наличие сканов в содержимом раздачи: да
Треклист:
Felix Mendelssohn-Bartholdy (1809-1847)
[1]-[7] Psalm 42 'Wie der Hirsch schreit', Op.42
[8]-[12] Psalm 95 'Kommt, lasst uns anbeten', Op.46
[13]-[16] Psalm 98 'Singet dem Herrn', Op.91
[17]-[20] Psalm 114 'Da Israel aus Ägypten zog', Op.51
[21]-[24] Psalm 115 'Non nobis, Domine', Op.31
Исполнители:
Chamber Choir of Europe
Nicol Matt

Лог создания рипа

Exact Audio Copy V1.0 beta 3 from 29. August 2011
EAC extraction logfile from 25. May 2014, 18:02
Chamber Choir of Europe, Nicol Matt / Mendelssohn - Complete Psalm Cantatas
Used drive : HL-DT-STDVDRAM GSA-4083N Adapter: 1 ID: 0
Read mode : Secure
Utilize accurate stream : Yes
Defeat audio cache : Yes
Make use of C2 pointers : No
Read offset correction : 667
Overread into Lead-In and Lead-Out : No
Fill up missing offset samples with silence : Yes
Delete leading and trailing silent blocks : No
Null samples used in CRC calculations : Yes
Used interface : Native Win32 interface for Win NT & 2000
Used output format : User Defined Encoder
Selected bitrate : 896 kBit/s
Quality : High
Add ID3 tag : No
Command line compressor : C:\Program Files\Exact Audio Copy\Flac\flac.exe
Additional command line options : -V -8 %source%
TOC of the extracted CD
Track | Start | Length | Start sector | End sector
---------------------------------------------------------
1 | 0:00.00 | 5:16.50 | 0 | 23749
2 | 5:16.50 | 2:17.55 | 23750 | 34079
3 | 7:34.30 | 2:49.00 | 34080 | 46754
4 | 10:23.30 | 1:47.14 | 46755 | 54793
5 | 12:10.44 | 1:25.55 | 54794 | 61223
6 | 13:36.24 | 3:36.68 | 61224 | 77491
7 | 17:13.17 | 4:30.29 | 77492 | 97770
8 | 21:43.46 | 5:06.62 | 97771 | 120782
9 | 26:50.33 | 5:54.50 | 120783 | 147382
10 | 32:45.08 | 3:18.46 | 147383 | 162278
11 | 36:03.54 | 2:38.01 | 162279 | 174129
12 | 38:41.55 | 5:33.53 | 174130 | 199157
13 | 44:15.33 | 1:22.33 | 199158 | 205340
14 | 45:37.66 | 1:08.51 | 205341 | 210491
15 | 46:46.42 | 2:22.20 | 210492 | 221161
16 | 49:08.62 | 2:19.31 | 221162 | 231617
17 | 51:28.18 | 2:11.08 | 231618 | 241450
18 | 53:39.26 | 2:31.70 | 241451 | 252845
19 | 56:11.21 | 3:57.30 | 252846 | 270650
20 | 60:08.51 | 4:06.25 | 270651 | 289125
21 | 64:15.01 | 5:01.61 | 289126 | 311761
22 | 69:16.62 | 4:32.15 | 311762 | 332176
23 | 73:49.02 | 3:26.07 | 332177 | 347633
24 | 77:15.09 | 3:22.66 | 347634 | 362849
Range status and errors
Selected range
Filename J:\New Music\Mendelssohn - Complete Psalm Cantatas\Mendelssohn - Complete Psalm Cantatas.wav
Peak level 96.8 %
Extraction speed 2.7 X
Range quality 100.0 %
Test CRC DFC9A92F
Copy CRC DFC9A92F
Copy OK
No errors occurred
AccurateRip summary
Track 1 cannot be verified as accurate (confidence 4) [DE14148C], AccurateRip returned [C704829E] (AR v2)
Track 2 cannot be verified as accurate (confidence 4) [08B37E40], AccurateRip returned [7E078FE2] (AR v2)
Track 3 cannot be verified as accurate (confidence 4) [E6572E46], AccurateRip returned [C42C4238] (AR v2)
Track 4 cannot be verified as accurate (confidence 4) [8D96D813], AccurateRip returned [EF6572A9] (AR v2)
Track 5 cannot be verified as accurate (confidence 4) [9F47A7D0], AccurateRip returned [52B55704] (AR v2)
Track 6 cannot be verified as accurate (confidence 4) [18C70137], AccurateRip returned [C2D3A2C4] (AR v2)
Track 7 cannot be verified as accurate (confidence 4) [A7A0B013], AccurateRip returned [D8086851] (AR v2)
Track 8 cannot be verified as accurate (confidence 4) [D0DDF80A], AccurateRip returned [42F68BC3] (AR v2)
Track 9 cannot be verified as accurate (confidence 4) [6864361E], AccurateRip returned [752F5CA2] (AR v2)
Track 10 cannot be verified as accurate (confidence 4) [631F009E], AccurateRip returned [CF429519] (AR v2)
Track 11 cannot be verified as accurate (confidence 4) [8790C535], AccurateRip returned [2D96AF87] (AR v2)
Track 12 cannot be verified as accurate (confidence 4) [A42D6CFB], AccurateRip returned [4987BD82] (AR v2)
Track 13 cannot be verified as accurate (confidence 4) [748AF72C], AccurateRip returned [F62C3477] (AR v2)
Track 14 cannot be verified as accurate (confidence 4) [81839EDC], AccurateRip returned [2DD18901] (AR v2)
Track 15 cannot be verified as accurate (confidence 4) [5F4F1CC2], AccurateRip returned [67FB8737] (AR v2)
Track 16 cannot be verified as accurate (confidence 4) [C43017D3], AccurateRip returned [4B6E2955] (AR v2)
Track 17 cannot be verified as accurate (confidence 4) [4489BD73], AccurateRip returned [0A06F9BE] (AR v2)
Track 18 cannot be verified as accurate (confidence 4) [9FE58C1B], AccurateRip returned [F5265237] (AR v2)
Track 19 cannot be verified as accurate (confidence 4) [978FA207], AccurateRip returned [EE772CDE] (AR v2)
Track 20 cannot be verified as accurate (confidence 4) [AF1EBC3A], AccurateRip returned [2CFE18B1] (AR v2)
Track 21 cannot be verified as accurate (confidence 4) [073C2E71], AccurateRip returned [07EC33FD] (AR v2)
Track 22 cannot be verified as accurate (confidence 4) [2C217053], AccurateRip returned [F2D3BAF6] (AR v2)
Track 23 cannot be verified as accurate (confidence 4) [AEF9A5F8], AccurateRip returned [35CDED61] (AR v2)
Track 24 cannot be verified as accurate (confidence 4) [77CD2EA1], AccurateRip returned [E4EFF85B] (AR v2)
No tracks could be verified as accurate
You may have a different pressing from the one(s) in the database
End of status report
==== Log checksum 83CEB467EB129492610106A2AD209D8DE5BF5DD5CC3C839AD12F4634A65C006F ====
[teatrix.ru].t18930.torrent 
Торрент: Зарегистрирован [ 2016-03-18 12:22 ] · 557733C520D4AB67653D197550748B1F7F85731C

Скачать .torrent

Скачать

29 KB

Статус: проверено
Скачан: 1 раз
Размер: 351 MB
terms.php



Быстрый ответ

Имя:

      
Для отправки сообщений необходимо включить JavaScript
Показать сообщения:    

Текущее время: 04-Дек 02:47

Часовой пояс: UTC + 3


Вы можете начинать темы
Вы можете отвечать на сообщения
Вы не можете редактировать свои сообщения
Вы не можете удалять свои сообщения
Вы не можете голосовать в опросах
Вы не можете прикреплять файлы к сообщениям
Вы можете скачивать файлы