(Baroque sacred vocal) Marc-Antoine Charpentier - Litanies de la Vierge - Motets pour la maison de Guis (Ensemble Correspondances, Sebastien Dauce) - 2013, FLAC (tracks+.cue) lossless


Статистика раздачи [Обновить пиров]
Размер:  312 MB   |    Зарегистрирован:  8 месяцев 20 дней   |    Скачан:  0 раз

Полного источника не было: Никогда

Личеров:  3  [  0 KB/s  ]   Подробная статистика пиров
 
   
 
 
 

[Цитировать]

Marc-Antoine Charpentier : Litanies de la Vierge - Motets pour la maison de Guis

Жанр: Baroque sacred vocal
Страна-производитель диска: Made in Austria
Год издания диска: 2013
Издатель (лейбл): harmonia mundi sa
Номер по каталогу: HMC 902169
Дата записи: 2013
Аудиокодек: FLAC
Тип рипа: tracks+.cue
Битрейт аудио: lossless
Продолжительность: 60'33
Источник: релизер
сайт-источник/ник/другое: ruskaval
Наличие сканов в содержимом раздачи: да
Треклист:

скрытый текст

01 - Miserere H.193. Miserere mei Deus
02 - Auditui meo dabis gaudiam
03 - Ne projicias me
04 - Libera me
05 - Sacrificium Deo spiritus contribulatus
06 - Antienne H.526
07 - Annunciate superi H.333. Annunciate superi
08 - Haec enim Virgo
09 - Psallite ergo populi
10 - Ouverture H.536
11 - Litanies de la Vierge H.83. Kyrie eleison
12 - Speculum justitiae
13 - Salus infirmorum
14 - Agnus Dei
Исполнители:

скрытый текст

Marc-Antoine Charpentier
Litanies de la Vierge - Motets pour la maison de Guise
Ensemble Correspondances
Sébastien Daucé

Лог создания рипа

Exact Audio Copy V1.0 beta 3 from 29. August 2011
EAC extraction logfile from 24. February 2014, 15:34
Ensemble Correspondances, Sebastien Dauce / Litanies de la Vierge
Used drive : PLEXTOR DVDR PX-860A Adapter: 0 ID: 0
Read mode : Secure
Utilize accurate stream : Yes
Defeat audio cache : Yes
Make use of C2 pointers : No
Read offset correction : 96
Overread into Lead-In and Lead-Out : No
Fill up missing offset samples with silence : Yes
Delete leading and trailing silent blocks : No
Null samples used in CRC calculations : Yes
Used interface : Native Win32 interface for Win NT & 2000
Gap handling : Appended to previous track
Used output format : User Defined Encoder
Selected bitrate : 1024 kBit/s
Quality : High
Add ID3 tag : No
Command line compressor : C:\Program Files\Exact Audio Copy\Flac\flac.exe
Additional command line options : -8 -V -T "ARTIST=%artist%" -T "TITLE=%title%" -T "ALBUM=%albumtitle%" -T "DATE=%year%" -T "TRACKNUMBER=%tracknr%" -T "TOTALTRACKS=%numtracks%" -T "GENRE=%genre%" -T "ALBUMARTIST=%albumartist%" -T "ALBUM ARTIST=%albumartist%" -T "COMMENT=EAC Secure Mode, Test & Copy, AccurateRip, FLAC -8" %source%
TOC of the extracted CD
Track | Start | Length | Start sector | End sector
---------------------------------------------------------
1 | 0:00.00 | 11:13.32 | 0 | 50506
2 | 11:13.32 | 3:21.68 | 50507 | 65649
3 | 14:35.25 | 3:23.24 | 65650 | 80898
4 | 17:58.49 | 2:49.43 | 80899 | 93616
5 | 20:48.17 | 4:23.70 | 93617 | 113411
6 | 25:12.12 | 2:37.43 | 113412 | 125229
7 | 27:49.55 | 6:14.36 | 125230 | 153315
8 | 34:04.16 | 2:47.49 | 153316 | 165889
9 | 36:51.65 | 1:35.21 | 165890 | 173035
10 | 38:27.11 | 5:30.28 | 173036 | 197813
11 | 43:57.39 | 5:14.17 | 197814 | 221380
12 | 49:11.56 | 2:14.51 | 221381 | 231481
13 | 51:26.32 | 5:17.25 | 231482 | 255281
14 | 56:43.57 | 3:47.00 | 255282 | 272306
Track 1
Filename O:\DL\Ensemble Correspondances, Sebastien Dauce - Litanies de la Vierge (2013) [FLAC]\01 - Miserere H.193. Miserere mei Deus.wav
Pre-gap length 0:00:02.00
Peak level 96.3 %
Extraction speed 4.9 X
Track quality 100.0 %
Test CRC 30D4C0E6
Copy CRC 30D4C0E6
Accurately ripped (confidence 3) [6CED8321] (AR v2)
Copy OK
Track 2
Filename O:\DL\Ensemble Correspondances, Sebastien Dauce - Litanies de la Vierge (2013) [FLAC]\02 - Miserere H.193. Auditui meo dabis gaudiam.wav
Peak level 93.2 %
Extraction speed 5.2 X
Track quality 100.0 %
Test CRC 737FEE39
Copy CRC 737FEE39
Accurately ripped (confidence 3) [0140668B] (AR v2)
Copy OK
Track 3
Filename O:\DL\Ensemble Correspondances, Sebastien Dauce - Litanies de la Vierge (2013) [FLAC]\03 - Miserere H.193. Ne projicias me.wav
Peak level 86.6 %
Extraction speed 5.4 X
Track quality 100.0 %
Test CRC 408405AE
Copy CRC 408405AE
Accurately ripped (confidence 3) [CCB8C670] (AR v2)
Copy OK
Track 4
Filename O:\DL\Ensemble Correspondances, Sebastien Dauce - Litanies de la Vierge (2013) [FLAC]\04 - Miserere H.193. Libera me.wav
Peak level 83.7 %
Extraction speed 5.5 X
Track quality 100.0 %
Test CRC 9F632050
Copy CRC 9F632050
Accurately ripped (confidence 3) [8A237A90] (AR v2)
Copy OK
Track 5
Filename O:\DL\Ensemble Correspondances, Sebastien Dauce - Litanies de la Vierge (2013) [FLAC]\05 - Miserere H.193. Sacrificium Deo spiritus contribulatus.wav
Peak level 90.5 %
Extraction speed 5.3 X
Track quality 99.9 %
Test CRC 892EA612
Copy CRC 892EA612
Accurately ripped (confidence 3) [F9B6409B] (AR v2)
Copy OK
Track 6
Filename O:\DL\Ensemble Correspondances, Sebastien Dauce - Litanies de la Vierge (2013) [FLAC]\06 - Antienne H.526.wav
Pre-gap length 0:00:06.37
Peak level 40.5 %
Extraction speed 5.8 X
Track quality 100.0 %
Test CRC 56E5F07B
Copy CRC 56E5F07B
Accurately ripped (confidence 3) [20F75A41] (AR v2)
Copy OK
Track 7
Filename O:\DL\Ensemble Correspondances, Sebastien Dauce - Litanies de la Vierge (2013) [FLAC]\07 - Annunciate superi H.333. Annunciate superi.wav
Pre-gap length 0:00:03.12
Peak level 89.3 %
Extraction speed 6.4 X
Track quality 99.9 %
Test CRC AA6AC530
Copy CRC AA6AC530
Accurately ripped (confidence 3) [030F8AB5] (AR v2)
Copy OK
Track 8
Filename O:\DL\Ensemble Correspondances, Sebastien Dauce - Litanies de la Vierge (2013) [FLAC]\08 - Annunciate superi H.333. Haec enim Virgo.wav
Peak level 94.2 %
Extraction speed 5.5 X
Track quality 99.9 %
Test CRC BC408653
Copy CRC BC408653
Accurately ripped (confidence 3) [22FCF7C6] (AR v2)
Copy OK
Track 9
Filename O:\DL\Ensemble Correspondances, Sebastien Dauce - Litanies de la Vierge (2013) [FLAC]\09 - Annunciate superi H.333. Psallite ergo populi.wav
Peak level 95.2 %
Extraction speed 4.5 X
Track quality 99.8 %
Test CRC 26F7FF22
Copy CRC 26F7FF22
Accurately ripped (confidence 3) [CF56B82F] (AR v2)
Copy OK
Track 10
Filename O:\DL\Ensemble Correspondances, Sebastien Dauce - Litanies de la Vierge (2013) [FLAC]\10 - Ouverture H.536.wav
Pre-gap length 0:00:02.89
Peak level 63.3 %
Extraction speed 7.3 X
Track quality 100.0 %
Test CRC 1B37DB92
Copy CRC 1B37DB92
Accurately ripped (confidence 3) [595F0A5A] (AR v2)
Copy OK
Track 11
Filename O:\DL\Ensemble Correspondances, Sebastien Dauce - Litanies de la Vierge (2013) [FLAC]\11 - Litanies de la Vierge H.83. Kyrie eleison.wav
Pre-gap length 0:00:04.12
Peak level 95.0 %
Extraction speed 7.8 X
Track quality 100.0 %
Test CRC 7D748BF3
Copy CRC 7D748BF3
Accurately ripped (confidence 3) [E269C943] (AR v2)
Copy OK
Track 12
Filename O:\DL\Ensemble Correspondances, Sebastien Dauce - Litanies de la Vierge (2013) [FLAC]\12 - Litanies de la Vierge H.83. Speculum justitiae.wav
Peak level 83.4 %
Extraction speed 6.8 X
Track quality 100.0 %
Test CRC AF5092D9
Copy CRC AF5092D9
Accurately ripped (confidence 3) [790F186D] (AR v2)
Copy OK
Track 13
Filename O:\DL\Ensemble Correspondances, Sebastien Dauce - Litanies de la Vierge (2013) [FLAC]\13 - Litanies de la Vierge H.83. Salus infirmorum.wav
Peak level 96.3 %
Extraction speed 7.9 X
Track quality 100.0 %
Test CRC 624B9A11
Copy CRC 624B9A11
Accurately ripped (confidence 3) [D053520A] (AR v2)
Copy OK
Track 14
Filename O:\DL\Ensemble Correspondances, Sebastien Dauce - Litanies de la Vierge (2013) [FLAC]\14 - Litanies de la Vierge H.83. Agnus Dei.wav
Peak level 83.1 %
Extraction speed 7.8 X
Track quality 100.0 %
Test CRC BFFBCFCE
Copy CRC BFFBCFCE
Accurately ripped (confidence 3) [AC6DAB35] (AR v2)
Copy OK
All tracks accurately ripped
No errors occurred
End of status report
---- CUETools DB Plugin V2.1.3
[CTDB TOCID: kPTMH8Bprhtcivz5jynGAvNMkVY-] found, Submit result: kPTMH8Bprhtcivz5jynGAvNMkVY- has been confirmed
[7e62a339] (3/3) Accurately ripped
==== Log checksum E4369985B086D43656CFD74B048AD38E72EF1466D9AE873CA3EE2DA541D6FA81 ====

Содержание индексной карты (.CUE)

REM GENRE Classical
REM DATE 2013
REM DISCID BD0E2E0E
REM COMMENT "ExactAudioCopy v1.0b3"
PERFORMER "Ensemble Correspondances, Sebastien Dauce"
TITLE "Litanies de la Vierge"
FILE "01 - Miserere H.193. Miserere mei Deus.wav" WAVE
TRACK 01 AUDIO
TITLE "Miserere H.193. Miserere mei Deus"
PERFORMER "Ensemble Correspondances, Sebastien Dauce"
INDEX 01 00:00:00
FILE "02 - Miserere H.193. Auditui meo dabis gaudiam.wav" WAVE
TRACK 02 AUDIO
TITLE "Miserere H.193. Auditui meo dabis gaudiam"
PERFORMER "Ensemble Correspondances, Sebastien Dauce"
INDEX 01 00:00:00
FILE "03 - Miserere H.193. Ne projicias me.wav" WAVE
TRACK 03 AUDIO
TITLE "Miserere H.193. Ne projicias me"
PERFORMER "Ensemble Correspondances, Sebastien Dauce"
INDEX 01 00:00:00
FILE "04 - Miserere H.193. Libera me.wav" WAVE
TRACK 04 AUDIO
TITLE "Miserere H.193. Libera me"
PERFORMER "Ensemble Correspondances, Sebastien Dauce"
INDEX 01 00:00:00
FILE "05 - Miserere H.193. Sacrificium Deo spiritus contribulatus.wav" WAVE
TRACK 05 AUDIO
TITLE "Miserere H.193. Sacrificium Deo spiritus contribulatus"
PERFORMER "Ensemble Correspondances, Sebastien Dauce"
INDEX 01 00:00:00
TRACK 06 AUDIO
TITLE "Antienne H.526"
PERFORMER "Ensemble Correspondances, Sebastien Dauce"
INDEX 00 04:17:42
FILE "06 - Antienne H.526.wav" WAVE
INDEX 01 00:00:00
TRACK 07 AUDIO
TITLE "Annunciate superi H.333. Annunciate superi"
PERFORMER "Ensemble Correspondances, Sebastien Dauce"
INDEX 00 02:34:34
FILE "07 - Annunciate superi H.333. Annunciate superi.wav" WAVE
INDEX 01 00:00:00
FILE "08 - Annunciate superi H.333. Haec enim Virgo.wav" WAVE
TRACK 08 AUDIO
TITLE "Annunciate superi H.333. Haec enim Virgo"
PERFORMER "Ensemble Correspondances, Sebastien Dauce"
INDEX 01 00:00:00
FILE "09 - Annunciate superi H.333. Psallite ergo populi.wav" WAVE
TRACK 09 AUDIO
TITLE "Annunciate superi H.333. Psallite ergo populi"
PERFORMER "Ensemble Correspondances, Sebastien Dauce"
INDEX 01 00:00:00
TRACK 10 AUDIO
TITLE "Ouverture H.536"
PERFORMER "Ensemble Correspondances, Sebastien Dauce"
INDEX 00 01:32:29
FILE "10 - Ouverture H.536.wav" WAVE
INDEX 01 00:00:00
TRACK 11 AUDIO
TITLE "Litanies de la Vierge H.83. Kyrie eleison"
PERFORMER "Ensemble Correspondances, Sebastien Dauce"
INDEX 00 05:26:19
FILE "11 - Litanies de la Vierge H.83. Kyrie eleison.wav" WAVE
INDEX 01 00:00:00
FILE "12 - Litanies de la Vierge H.83. Speculum justitiae.wav" WAVE
TRACK 12 AUDIO
TITLE "Litanies de la Vierge H.83. Speculum justitiae"
PERFORMER "Ensemble Correspondances, Sebastien Dauce"
INDEX 01 00:00:00
FILE "13 - Litanies de la Vierge H.83. Salus infirmorum.wav" WAVE
TRACK 13 AUDIO
TITLE "Litanies de la Vierge H.83. Salus infirmorum"
PERFORMER "Ensemble Correspondances, Sebastien Dauce"
INDEX 01 00:00:00
FILE "14 - Litanies de la Vierge H.83. Agnus Dei.wav" WAVE
TRACK 14 AUDIO
TITLE "Litanies de la Vierge H.83. Agnus Dei"
PERFORMER "Ensemble Correspondances, Sebastien Dauce"
INDEX 01 00:00:00
[teatrix.ru].t18932.torrent 
Торрент: Зарегистрирован [ 2016-03-18 12:24 ] · 402A005F0D17BC944A95EA216A81C3D53DAAF82D

Скачать .torrent

Скачать

14 KB

Статус: проверено
Скачан: 0 раз
Размер: 312 MB
terms.php



Быстрый ответ

Имя:

      
Для отправки сообщений необходимо включить JavaScript
Показать сообщения:    

Текущее время: 07-Дек 21:23

Часовой пояс: UTC + 3


Вы можете начинать темы
Вы можете отвечать на сообщения
Вы не можете редактировать свои сообщения
Вы не можете удалять свои сообщения
Вы не можете голосовать в опросах
Вы не можете прикреплять файлы к сообщениям
Вы можете скачивать файлы