(Chamber, Avant-garde, ECM New Series) Heinz Holliger - Induuchlen, Puneiga, Toronto-Exercises etc - Holliger, Swiss Chamber Soloists - 2011, FLAC (image+.cue) lossless


 

[Цитировать]

Heinz Holliger - Induuchlen, Puneiga, Toronto-Exercises etc - Swiss Chamber Soloists etc
Жанр: Chamber, Avant-garde
Страна-производитель диска: Германия
Год издания диска: 2011
Издатель (лейбл): ECM (ECM New Series)
Аудиокодек: FLAC
Тип рипа: image+.cue
Битрейт аудио: lossless
Продолжительность: 1h 15m 29s
Источник: собственный рип
Наличие сканов в содержимом раздачи: да
Треклист:
[1]-[4] Toronto-Exercises, for Flute, Clarinet, Violin, Harp & Marimba
[5]-[14] Poems of Anna Maria Bacher (recitation)
[15]-[28] Puneigä, 10 Lieder with Interludes on poems of Anna Maria Bacher, for Soprano, Flute, Clarinet, Horn, Viola, Violoncello and Percussion (with Cimbalom)
[29] Induuchlen by Albert Streich (recitation)
[30]-[33] Induuchlen, 4 Lieder on the "Briensertiitsch Väärsa" of Albert Streich, for Countertenor and Natural Horn
[34] Ma'mounia, for Percussion and Instrumental Quintet
Исполнители:
Heinz Holliger, direction [1]-[4], [15]-[28], [34]
Sylvia Nopper, soprano [15]-[28]
Kai Wessel, countertenor [30]-[33]
Anna Maria Bacher, recitation [5]-[14]
Albert Streich, recitation [29]
Members of the Swiss Chamber Soloists:
Felix Renggli, flutes [1]-[4], [15]-[28], [34]
François Benda, clarinet [1]-[4]
Elmar Schmid, clarinet, bass clarinet, contrabass clarinet [15]-[28], [34]
Olivier Darbellay, horn, natural horn [15]-[28], [30]-[34]
Jürg Dähler, violin, viola [1]-[4], [15]-[28]
Daniel Haefliger, violoncello [15]-[28], [34]
Matthias Würsch, percussion, cimbalom [1]-[4], [15]-[28], [34]
Ursula Holliger, harp [1]-[4]
Bahar Dördüncü, piano [34]

Лог создания рипа

X Lossless Decoder version 20140504 (147.0)
XLD extraction logfile from 2014-06-06 15:45:17 +1200
Heinz Holliger / Induuchlen
Used drive : MATSHITA DVD-R UJ-8A8 (revision HB14)
Media type : Pressed CD
Ripper mode : XLD Secure Ripper
Disable audio cache : OK for the drive with a cache less than 1375KiB
Make use of C2 pointers : NO
Read offset correction : 102
Max retry count : 20
Gap status : Analyzed, Appended
TOC of the extracted CD
Track | Start | Length | Start sector | End sector
---------------------------------------------------------
1 | 00:00:00 | 02:46:44 | 0 | 12493
2 | 02:46:44 | 03:13:33 | 12494 | 27001
3 | 06:00:02 | 03:31:60 | 27002 | 42886
4 | 09:31:62 | 01:15:25 | 42887 | 48536
5 | 10:47:12 | 00:26:60 | 48537 | 50546
6 | 11:13:72 | 00:28:70 | 50547 | 52716
7 | 11:42:67 | 00:30:66 | 52717 | 55032
8 | 12:13:58 | 00:24:72 | 55033 | 56904
9 | 12:38:55 | 00:30:25 | 56905 | 59179
10 | 13:09:05 | 00:27:62 | 59180 | 61266
11 | 13:36:67 | 00:24:12 | 61267 | 63078
12 | 14:01:04 | 00:24:25 | 63079 | 64903
13 | 14:25:29 | 00:42:24 | 64904 | 68077
14 | 15:07:53 | 00:22:51 | 68078 | 69778
15 | 15:30:29 | 01:59:50 | 69779 | 78753
16 | 17:30:04 | 01:10:69 | 78754 | 84072
17 | 18:40:73 | 02:06:31 | 84073 | 93553
18 | 20:47:29 | 03:35:59 | 93554 | 109737
19 | 24:23:13 | 01:57:05 | 109738 | 118517
20 | 26:20:18 | 01:48:32 | 118518 | 126649
21 | 28:08:50 | 01:01:47 | 126650 | 131271
22 | 29:10:22 | 00:58:57 | 131272 | 135678
23 | 30:09:04 | 00:54:24 | 135679 | 139752
24 | 31:03:28 | 02:24:03 | 139753 | 150555
25 | 33:27:31 | 01:17:71 | 150556 | 156401
26 | 34:45:27 | 01:54:64 | 156402 | 165015
27 | 36:40:16 | 03:57:60 | 165016 | 182850
28 | 40:38:01 | 03:39:35 | 182851 | 199310
29 | 44:17:36 | 00:28:65 | 199311 | 201475
30 | 44:46:26 | 04:56:45 | 201476 | 223720
31 | 49:42:71 | 03:12:39 | 223721 | 238159
32 | 52:55:35 | 05:40:31 | 238160 | 263690
33 | 58:35:66 | 04:41:03 | 263691 | 284768
34 | 63:16:69 | 12:12:07 | 284769 | 339675
AccurateRip Summary (DiscID: 003f6a7d-06133165-0911b122)
Track 01 : OK (v2, confidence 3/3)
Track 02 : OK (v2, confidence 3/3)
Track 03 : OK (v2, confidence 3/3)
Track 04 : OK (v2, confidence 3/3)
Track 05 : OK (v2, confidence 3/3)
Track 06 : OK (v2, confidence 3/3)
Track 07 : OK (v2, confidence 3/3)
Track 08 : OK (v2, confidence 3/3)
Track 09 : OK (v2, confidence 3/3)
Track 10 : OK (v2, confidence 3/3)
Track 11 : OK (v2, confidence 3/3)
Track 12 : OK (v2, confidence 3/3)
Track 13 : OK (v2, confidence 3/3)
Track 14 : OK (v2, confidence 3/3)
Track 15 : OK (v2, confidence 3/3)
Track 16 : OK (v2, confidence 3/3)
Track 17 : OK (v2, confidence 3/3)
Track 18 : OK (v2, confidence 3/3)
Track 19 : OK (v2, confidence 3/3)
Track 20 : OK (v2, confidence 3/3)
Track 21 : OK (v2, confidence 3/3)
Track 22 : OK (v2, confidence 3/3)
Track 23 : OK (v2, confidence 3/3)
Track 24 : OK (v2, confidence 3/3)
Track 25 : OK (v2, confidence 3/3)
Track 26 : OK (v2, confidence 3/3)
Track 27 : OK (v2, confidence 3/3)
Track 28 : OK (v2, confidence 3/3)
Track 29 : OK (v2, confidence 3/3)
Track 30 : OK (v2, confidence 3/3)
Track 31 : OK (v2, confidence 3/3)
Track 32 : OK (v2, confidence 3/3)
Track 33 : OK (v2, confidence 3/3)
Track 34 : OK (v2, confidence 3/3)
->All tracks accurately ripped.
All Tracks
Filename : /Volumes/LaCie/rips/Holliger - Induuchlen/Induuchlen.flac
CRC32 hash : F3E4D42C
CRC32 hash (skip zero) : D577348B
Statistics
Read error : 0
Jitter error (maybe fixed) : 0
Retry sector count : 0
Damaged sector count : 0
Track 01
Pre-gap length : 00:02:00
CRC32 hash : 77A99081
CRC32 hash (skip zero) : 89CBDDF8
AccurateRip v1 signature : E1845621
AccurateRip v2 signature : 20145C80
->Accurately ripped (v2, confidence 3/3)
Statistics
Read error : 0
Jitter error (maybe fixed) : 0
Retry sector count : 0
Damaged sector count : 0
Track 02
CRC32 hash : 7572D619
CRC32 hash (skip zero) : 9F841199
AccurateRip v1 signature : A65FCED4
AccurateRip v2 signature : 2BD01A6D
->Accurately ripped (v2, confidence 3/3)
Statistics
Read error : 0
Jitter error (maybe fixed) : 0
Retry sector count : 0
Damaged sector count : 0
Track 03
CRC32 hash : 3C78E4E5
CRC32 hash (skip zero) : 0CBE00CF
AccurateRip v1 signature : E817E4D8
AccurateRip v2 signature : 1F0FC363
->Accurately ripped (v2, confidence 3/3)
Statistics
Read error : 0
Jitter error (maybe fixed) : 0
Retry sector count : 0
Damaged sector count : 0
Track 04
CRC32 hash : 58CBDA40
CRC32 hash (skip zero) : 293B46B7
AccurateRip v1 signature : 89BC725A
AccurateRip v2 signature : F19E098F
->Accurately ripped (v2, confidence 3/3)
Statistics
Read error : 0
Jitter error (maybe fixed) : 0
Retry sector count : 0
Damaged sector count : 0
Track 05
Pre-gap length : 00:05:11
CRC32 hash : 3F154740
CRC32 hash (skip zero) : E3603822
AccurateRip v1 signature : 6BA914F3
AccurateRip v2 signature : 5260A792
->Accurately ripped (v2, confidence 3/3)
Statistics
Read error : 0
Jitter error (maybe fixed) : 0
Retry sector count : 0
Damaged sector count : 0
Track 06
CRC32 hash : 2B7D0D59
CRC32 hash (skip zero) : 5F253E96
AccurateRip v1 signature : 59B4A133
AccurateRip v2 signature : 86E6D932
->Accurately ripped (v2, confidence 3/3)
Statistics
Read error : 0
Jitter error (maybe fixed) : 0
Retry sector count : 0
Damaged sector count : 0
Track 07
CRC32 hash : 6B112B00
CRC32 hash (skip zero) : 11F9A594
AccurateRip v1 signature : B08B893A
AccurateRip v2 signature : 59614C27
->Accurately ripped (v2, confidence 3/3)
Statistics
Read error : 0
Jitter error (maybe fixed) : 0
Retry sector count : 0
Damaged sector count : 0
Track 08
CRC32 hash : C1952DD4
CRC32 hash (skip zero) : 4F72E7B5
AccurateRip v1 signature : A3C5D9BB
AccurateRip v2 signature : 12378460
->Accurately ripped (v2, confidence 3/3)
Statistics
Read error : 0
Jitter error (maybe fixed) : 0
Retry sector count : 0
Damaged sector count : 0
Track 09
CRC32 hash : 7C572A32
CRC32 hash (skip zero) : A259545D
AccurateRip v1 signature : 5D30B4E5
AccurateRip v2 signature : 87B336EE
->Accurately ripped (v2, confidence 3/3)
Statistics
Read error : 0
Jitter error (maybe fixed) : 0
Retry sector count : 0
Damaged sector count : 0
Track 10
CRC32 hash : 6123A4A4
CRC32 hash (skip zero) : A09BC4C0
AccurateRip v1 signature : A80E9089
AccurateRip v2 signature : C022CA68
->Accurately ripped (v2, confidence 3/3)
Statistics
Read error : 0
Jitter error (maybe fixed) : 0
Retry sector count : 0
Damaged sector count : 0
Track 11
CRC32 hash : 8F21F350
CRC32 hash (skip zero) : 38196318
AccurateRip v1 signature : 3E6564B9
AccurateRip v2 signature : 48363C06
->Accurately ripped (v2, confidence 3/3)
Statistics
Read error : 0
Jitter error (maybe fixed) : 0
Retry sector count : 0
Damaged sector count : 0
Track 12
CRC32 hash : 26DC3172
CRC32 hash (skip zero) : 5D78102D
AccurateRip v1 signature : C81289A1
AccurateRip v2 signature : 65750CF8
->Accurately ripped (v2, confidence 3/3)
Statistics
Read error : 0
Jitter error (maybe fixed) : 0
Retry sector count : 0
Damaged sector count : 0
Track 13
CRC32 hash : 69839059
CRC32 hash (skip zero) : 91CF407A
AccurateRip v1 signature : AA3FDF1F
AccurateRip v2 signature : CB51D065
->Accurately ripped (v2, confidence 3/3)
Statistics
Read error : 0
Jitter error (maybe fixed) : 0
Retry sector count : 0
Damaged sector count : 0
Track 14
CRC32 hash : 34D7EF4A
CRC32 hash (skip zero) : 771A523C
AccurateRip v1 signature : B3D6D0C0
AccurateRip v2 signature : 2EEB7A12
->Accurately ripped (v2, confidence 3/3)
Statistics
Read error : 0
Jitter error (maybe fixed) : 0
Retry sector count : 0
Damaged sector count : 0
Track 15
CRC32 hash : 2D283DA8
CRC32 hash (skip zero) : C32B4B02
AccurateRip v1 signature : 96630978
AccurateRip v2 signature : D4827053
->Accurately ripped (v2, confidence 3/3)
Statistics
Read error : 0
Jitter error (maybe fixed) : 0
Retry sector count : 0
Damaged sector count : 0
Track 16
CRC32 hash : D1481A35
CRC32 hash (skip zero) : AAE1566B
AccurateRip v1 signature : FBE6F560
AccurateRip v2 signature : 2BBD029E
->Accurately ripped (v2, confidence 3/3)
Statistics
Read error : 0
Jitter error (maybe fixed) : 0
Retry sector count : 0
Damaged sector count : 0
Track 17
CRC32 hash : 8CBB7ABE
CRC32 hash (skip zero) : 7020BA37
AccurateRip v1 signature : 5F005146
AccurateRip v2 signature : 35F08816
->Accurately ripped (v2, confidence 3/3)
Statistics
Read error : 0
Jitter error (maybe fixed) : 0
Retry sector count : 0
Damaged sector count : 0
Track 18
CRC32 hash : 316E6093
CRC32 hash (skip zero) : 3D6CA806
AccurateRip v1 signature : CF32E140
AccurateRip v2 signature : 2D514D20
->Accurately ripped (v2, confidence 3/3)
Statistics
Read error : 0
Jitter error (maybe fixed) : 0
Retry sector count : 0
Damaged sector count : 0
Track 19
CRC32 hash : C1142D8D
CRC32 hash (skip zero) : 960496D5
AccurateRip v1 signature : 9A7FA978
AccurateRip v2 signature : FB825C89
->Accurately ripped (v2, confidence 3/3)
Statistics
Read error : 0
Jitter error (maybe fixed) : 0
Retry sector count : 0
Damaged sector count : 0
Track 20
CRC32 hash : 379D723F
CRC32 hash (skip zero) : 1C7A82B4
AccurateRip v1 signature : CAB55D03
AccurateRip v2 signature : 8EBD5756
->Accurately ripped (v2, confidence 3/3)
Statistics
Read error : 0
Jitter error (maybe fixed) : 0
Retry sector count : 0
Damaged sector count : 0
Track 21
CRC32 hash : E40724D2
CRC32 hash (skip zero) : A38888A7
AccurateRip v1 signature : CCFA5C6E
AccurateRip v2 signature : 51461453
->Accurately ripped (v2, confidence 3/3)
Statistics
Read error : 0
Jitter error (maybe fixed) : 0
Retry sector count : 0
Damaged sector count : 0
Track 22
CRC32 hash : C4BB7221
CRC32 hash (skip zero) : 3218AD19
AccurateRip v1 signature : C25152A2
AccurateRip v2 signature : 440A75C2
->Accurately ripped (v2, confidence 3/3)
Statistics
Read error : 0
Jitter error (maybe fixed) : 0
Retry sector count : 0
Damaged sector count : 0
Track 23
CRC32 hash : C0657BB3
CRC32 hash (skip zero) : 230C5903
AccurateRip v1 signature : B6882A62
AccurateRip v2 signature : FCF267A3
->Accurately ripped (v2, confidence 3/3)
Statistics
Read error : 0
Jitter error (maybe fixed) : 0
Retry sector count : 0
Damaged sector count : 0
Track 24
CRC32 hash : EF8341F6
CRC32 hash (skip zero) : A9C70143
AccurateRip v1 signature : 2EEEC58D
AccurateRip v2 signature : 5B0B5899
->Accurately ripped (v2, confidence 3/3)
Statistics
Read error : 0
Jitter error (maybe fixed) : 0
Retry sector count : 0
Damaged sector count : 0
Track 25
CRC32 hash : 037A65FD
CRC32 hash (skip zero) : BC320075
AccurateRip v1 signature : 8F5B0A9F
AccurateRip v2 signature : 4554AA8D
->Accurately ripped (v2, confidence 3/3)
Statistics
Read error : 0
Jitter error (maybe fixed) : 0
Retry sector count : 0
Damaged sector count : 0
Track 26
CRC32 hash : EF9B3121
CRC32 hash (skip zero) : 9C9EE05D
AccurateRip v1 signature : CFAFFDDA
AccurateRip v2 signature : A0B46688
->Accurately ripped (v2, confidence 3/3)
Statistics
Read error : 0
Jitter error (maybe fixed) : 0
Retry sector count : 0
Damaged sector count : 0
Track 27
CRC32 hash : 8C3505B2
CRC32 hash (skip zero) : 5F663F12
AccurateRip v1 signature : D04CFDFA
AccurateRip v2 signature : 30428EDA
->Accurately ripped (v2, confidence 3/3)
Statistics
Read error : 0
Jitter error (maybe fixed) : 0
Retry sector count : 0
Damaged sector count : 0
Track 28
CRC32 hash : 3C9A3B3C
CRC32 hash (skip zero) : A4E50029
AccurateRip v1 signature : 9C10FD2A
AccurateRip v2 signature : 282C3877
->Accurately ripped (v2, confidence 3/3)
Statistics
Read error : 0
Jitter error (maybe fixed) : 0
Retry sector count : 0
Damaged sector count : 0
Track 29
Pre-gap length : 00:03:16
CRC32 hash : 1744ED0F
CRC32 hash (skip zero) : B7E22091
AccurateRip v1 signature : 26354A35
AccurateRip v2 signature : F9916199
->Accurately ripped (v2, confidence 3/3)
Statistics
Read error : 0
Jitter error (maybe fixed) : 0
Retry sector count : 0
Damaged sector count : 0
Track 30
CRC32 hash : 04677943
CRC32 hash (skip zero) : F8C846C2
AccurateRip v1 signature : 386C507A
AccurateRip v2 signature : D1E94786
->Accurately ripped (v2, confidence 3/3)
Statistics
Read error : 0
Jitter error (maybe fixed) : 0
Retry sector count : 0
Damaged sector count : 0
Track 31
CRC32 hash : D8D038D4
CRC32 hash (skip zero) : 254C6EF3
AccurateRip v1 signature : 3FCD4596
AccurateRip v2 signature : 70FE2177
->Accurately ripped (v2, confidence 3/3)
Statistics
Read error : 0
Jitter error (maybe fixed) : 0
Retry sector count : 0
Damaged sector count : 0
Track 32
CRC32 hash : B5B6FF45
CRC32 hash (skip zero) : 525DDE89
AccurateRip v1 signature : E03465B5
AccurateRip v2 signature : 7E2A917F
->Accurately ripped (v2, confidence 3/3)
Statistics
Read error : 0
Jitter error (maybe fixed) : 0
Retry sector count : 0
Damaged sector count : 0
Track 33
CRC32 hash : 787E18AB
CRC32 hash (skip zero) : B0FACC4F
AccurateRip v1 signature : EA23E263
AccurateRip v2 signature : 55626ADD
->Accurately ripped (v2, confidence 3/3)
Statistics
Read error : 0
Jitter error (maybe fixed) : 0
Retry sector count : 0
Damaged sector count : 0
Track 34
Pre-gap length : 00:03:35
CRC32 hash : DFC9064F
CRC32 hash (skip zero) : DDB6FFBE
AccurateRip v1 signature : 1CF058C1
AccurateRip v2 signature : F0A8CE24
->Accurately ripped (v2, confidence 3/3)
Statistics
Read error : 0
Jitter error (maybe fixed) : 0
Retry sector count : 0
Damaged sector count : 0
No errors occurred
End of status report

Содержание индексной карты (.CUE)

TITLE "Induuchlen"
PERFORMER "Heinz Holliger"
CATALOG 0028947639770
REM GENRE "Avantgarde"
REM DATE "2011"
REM DISCID 0911B122
FILE "Induuchlen.flac" WAVE
TRACK 01 AUDIO
TITLE "Toronto-Exercises for Flt, Clt, Vln, Hrp and Mba (2005) - 1. Monotonia"
ISRC DEB330720101
INDEX 01 00:00:00
TRACK 02 AUDIO
TITLE "Toronto-Exercises for Flt, Clt, Vln, Hrp and Mba (2005) - 2. Moto perpetuo"
ISRC DEB330720102
INDEX 01 02:46:44
TRACK 03 AUDIO
TITLE "Toronto-Exercises for Flt, Clt, Vln, Hrp and Mba (2005) - 3. Harmonia"
ISRC DEB330720103
INDEX 01 06:00:02
TRACK 04 AUDIO
TITLE "Toronto-Exercises for Flt, Clt, Vln, Hrp and Mba (2005) - 4. Canon in prolatio"
ISRC DEB330720104
INDEX 01 09:31:62
TRACK 05 AUDIO
TITLE "Gedichte von Anna Maria Bacher for Vce - 1. Der Wênter"
ISRC DEB330720105
INDEX 00 10:42:01
INDEX 01 10:47:12
TRACK 06 AUDIO
TITLE "Gedichte von Anna Maria Bacher for Vce - 2. …aber wêr si Fogla"
ISRC DEB330720106
INDEX 01 11:13:72
TRACK 07 AUDIO
TITLE "Gedichte von Anna Maria Bacher for Vce - 3. Wen mu plangät"
ISRC DEB330720107
INDEX 01 11:42:67
TRACK 08 AUDIO
TITLE "Gedichte von Anna Maria Bacher for Vce - 4. Herbscht"
ISRC DEB330720108
INDEX 01 12:13:58
TRACK 09 AUDIO
TITLE "Gedichte von Anna Maria Bacher for Vce - 5. Der letscht Flug"
ISRC DEB330720109
INDEX 01 12:38:55
TRACK 10 AUDIO
TITLE "Gedichte von Anna Maria Bacher for Vce - 6. Hêlf!"
ISRC DEB330720110
INDEX 01 13:09:05
TRACK 11 AUDIO
TITLE "Gedichte von Anna Maria Bacher for Vce - 7. Lengi Nacht"
ISRC DEB330720111
INDEX 01 13:36:67
TRACK 12 AUDIO
TITLE "Gedichte von Anna Maria Bacher for Vce - 8. T Rosa im Morgä"
ISRC DEB330720112
INDEX 01 14:01:04
TRACK 13 AUDIO
TITLE "Gedichte von Anna Maria Bacher for Vce - 9. Dem Toot"
ISRC DEB330720113
INDEX 01 14:25:29
TRACK 14 AUDIO
TITLE "Gedichte von Anna Maria Bacher for Vce - 10. Dechä un Werter"
ISRC DEB330720114
INDEX 01 15:07:53
TRACK 15 AUDIO
TITLE "Puneigä, 10 Lieder for Sop, Flt, Clt, Hrn, Vla, Clo and Prc on Poems of Anna Maria Bacher (2002) - I. Der Wênter"
ISRC DEB330720115
INDEX 01 15:30:29
TRACK 16 AUDIO
TITLE "Puneigä, 10 Lieder for Sop, Flt, Clt, Hrn, Vla, Clo and Prc on Poems of Anna Maria Bacher (2002) - II. …aber wêr si Fogla!"
ISRC DEB330720116
INDEX 01 17:30:04
TRACK 17 AUDIO
TITLE "Puneigä, 10 Lieder for Sop, Flt, Clt, Hrn, Vla, Clo and Prc on Poems of Anna Maria Bacher (2002) - Umgiiri - Zwischenspiel I"
ISRC DEB330720117
INDEX 01 18:40:73
TRACK 18 AUDIO
TITLE "Puneigä, 10 Lieder for Sop, Flt, Clt, Hrn, Vla, Clo and Prc on Poems of Anna Maria Bacher (2002) - III. Wen mu plangät"
ISRC DEB330720118
INDEX 01 20:47:29
TRACK 19 AUDIO
TITLE "Puneigä, 10 Lieder for Sop, Flt, Clt, Hrn, Vla, Clo and Prc on Poems of Anna Maria Bacher (2002) - IV. Herbscht"
ISRC DEB330720119
INDEX 01 24:23:13
TRACK 20 AUDIO
TITLE "Puneigä, 10 Lieder for Sop, Flt, Clt, Hrn, Vla, Clo and Prc on Poems of Anna Maria Bacher (2002) - V. Der letscht Flug"
ISRC DEB330720120
INDEX 01 26:20:18
TRACK 21 AUDIO
TITLE "Puneigä, 10 Lieder for Sop, Flt, Clt, Hrn, Vla, Clo and Prc on Poems of Anna Maria Bacher (2002) - Fingerschädru - Zwischenspiel II"
ISRC DEB330720121
INDEX 01 28:08:50
TRACK 22 AUDIO
TITLE "Puneigä, 10 Lieder for Sop, Flt, Clt, Hrn, Vla, Clo and Prc on Poems of Anna Maria Bacher (2002) - VI. Hêlf!"
ISRC DEB330720122
INDEX 01 29:10:22
TRACK 23 AUDIO
TITLE "Puneigä, 10 Lieder for Sop, Flt, Clt, Hrn, Vla, Clo and Prc on Poems of Anna Maria Bacher (2002) - Rêtschkuts - Zwischenspiel III"
ISRC DEB330720123
INDEX 01 30:09:04
TRACK 24 AUDIO
TITLE "Puneigä, 10 Lieder for Sop, Flt, Clt, Hrn, Vla, Clo and Prc on Poems of Anna Maria Bacher (2002) - VII. Lengi Nacht"
ISRC DEB330720124
INDEX 01 31:03:28
TRACK 25 AUDIO
TITLE "Puneigä, 10 Lieder for Sop, Flt, Clt, Hrn, Vla, Clo and Prc on Poems of Anna Maria Bacher (2002) - VIII. T Rosa im Morgä"
ISRC DEB330720125
INDEX 01 33:27:31
TRACK 26 AUDIO
TITLE "Puneigä, 10 Lieder for Sop, Flt, Clt, Hrn, Vla, Clo and Prc on Poems of Anna Maria Bacher (2002) - Ischu Koraal - Zwischenspiel IV"
ISRC DEB330720126
INDEX 01 34:45:27
TRACK 27 AUDIO
TITLE "Puneigä, 10 Lieder for Sop, Flt, Clt, Hrn, Vla, Clo and Prc on Poems of Anna Maria Bacher (2002) - IX. Dem Toot"
ISRC DEB330720127
INDEX 01 36:40:16
TRACK 28 AUDIO
TITLE "Puneigä, 10 Lieder for Sop, Flt, Clt, Hrn, Vla, Clo and Prc on Poems of Anna Maria Bacher (2002) - X. Dechä un Werter"
ISRC DEB330720128
INDEX 01 40:38:01
TRACK 29 AUDIO
TITLE "Induuchlen von Albert Streich, Vce"
ISRC DEB330720129
INDEX 00 44:14:20
INDEX 01 44:17:36
TRACK 30 AUDIO
TITLE "Induuchlen 4 Lieder for CTnr and Hrn after Briensertitsch Vaarsa von Albert Streich (2004) - I. Uf steinigem Boden"
ISRC DEB330720130
INDEX 01 44:46:26
TRACK 31 AUDIO
TITLE "Induuchlen 4 Lieder for CTnr and Hrn after Briensertitsch Vaarsa von Albert Streich (2004) - II. Zitronefalter"
ISRC DEB330720131
INDEX 01 49:42:71
TRACK 32 AUDIO
TITLE "Induuchlen 4 Lieder for CTnr and Hrn after Briensertitsch Vaarsa von Albert Streich (2004) - III. Induuchlen"
ISRC DEB330720132
INDEX 01 52:55:35
TRACK 33 AUDIO
TITLE "Induuchlen 4 Lieder for CTnr and Hrn after Briensertitsch Vaarsa von Albert Streich (2004) - IV. Der Stag"
ISRC DEB330720133
INDEX 01 58:35:66
TRACK 34 AUDIO
TITLE "Ma'mounia for Prc Solo and Inst Qnt (2002)"
ISRC DEB330720134
INDEX 00 63:13:34
INDEX 01 63:16:69
CUE sheet is encoded in Unicode (UTF-8).



Показать сообщения:    

Текущее время: 03-Дек 18:43

Часовой пояс: UTC + 3


Вы не можете начинать темы
Вы не можете отвечать на сообщения
Вы не можете редактировать свои сообщения
Вы не можете удалять свои сообщения
Вы не можете голосовать в опросах
Вы не можете прикреплять файлы к сообщениям
Вы не можете скачивать файлы