(Contemporary, Avant-garde) Salvatore Sciarrino - Quaderno di strada - Otto Katzameier, Sylvain Cambreling, Klangforum Wien - 2005, FLAC (tracks+.cue) lossless


 

[Цитировать]

Salvatore Sciarrino - Quaderno di strada - Otto Katzameier, Sylvain Cambreling, Klangforum Wien
Жанр: Contemporary, Avant-garde
Страна-производитель диска: австрия
Год издания диска: 2005
Издатель (лейбл): Kairos
Дата записи: 2005
Аудиокодек: FLAC
Тип рипа: tracks+.cue
Битрейт аудио: lossless
Продолжительность: 42m 27s
Источник: собственный рип
Наличие сканов в содержимом раздачи: нет
Треклист:
[1] se non ora, quando?
[2] ... lo smarrimento
[3] ... smarrita la misura
[4] Disse un poeta
[5] se spera che i sasi
[6] Dova andarono la sera i muratori
[7] Anno 410
[8] La rosa che si disfa
[9] Piove
[10] Donato Creti scrisse
[11] a filo del violino
[12] Fior di kencùr
[13] Du cose al mondo (Proverbio)
Исполнители:
Otto Katzameier, baritone
Sylvain Cambreling, direction
Klangforum Wien

Лог создания рипа

X Lossless Decoder version 20140504 (147.0)
XLD extraction logfile from 2014-07-25 10:43:09 +1200
Salvatore Sciarrino / Quaderno di strada [Otto Katzameier, Klangforum Wien, Sylvain Cambreling]
Used drive : MATSHITA DVD-R UJ-8A8 (revision HB14)
Media type : Pressed CD
Ripper mode : XLD Secure Ripper
Disable audio cache : OK for the drive with a cache less than 1375KiB
Make use of C2 pointers : NO
Read offset correction : 102
Max retry count : 20
Gap status : Analyzed, Appended
TOC of the extracted CD
Track | Start | Length | Start sector | End sector
---------------------------------------------------------
1 | 00:00:00 | 02:28:74 | 0 | 11173
2 | 02:28:74 | 02:46:08 | 11174 | 23631
3 | 05:15:07 | 03:21:21 | 23632 | 38727
4 | 08:36:28 | 02:11:71 | 38728 | 48623
5 | 10:48:24 | 01:50:71 | 48624 | 56944
6 | 12:39:20 | 02:19:57 | 56945 | 67426
7 | 14:59:02 | 05:21:05 | 67427 | 91506
8 | 20:20:07 | 05:10:29 | 91507 | 114785
9 | 25:30:36 | 01:36:70 | 114786 | 122055
10 | 27:07:31 | 03:46:38 | 122056 | 139043
11 | 30:53:69 | 02:46:69 | 139044 | 151562
12 | 33:40:63 | 05:49:12 | 151563 | 177749
13 | 39:30:00 | 02:55:00 | 177750 | 190874
AccurateRip Summary (DiscID: 0012d4bf-00c0982a-8f09f10d)
Track 01 : NG (total 1 submission)
Track 02 : OK (v2, confidence 1/1)
Track 03 : OK (v2, confidence 1/1)
Track 04 : OK (v2, confidence 1/1)
Track 05 : OK (v2, confidence 1/1)
Track 06 : OK (v2, confidence 1/1)
Track 07 : OK (v2, confidence 1/1)
Track 08 : OK (v2, confidence 1/1)
Track 09 : OK (v2, confidence 1/1)
Track 10 : OK (v2, confidence 1/1)
Track 11 : OK (v2, confidence 1/1)
Track 12 : OK (v2, confidence 1/1)
Track 13 : OK (v2, confidence 1/1)
->12 tracks accurately ripped, 1 track not
All Tracks
Statistics
Read error : 0
Jitter error (maybe fixed) : 0
Retry sector count : 0
Damaged sector count : 0
Track 01
Filename : /Volumes/LaCie/rips/Sciarrino - Quaderno di strada/01-01 - Salvatore Sciarrino - se non ora, quando?.flac
Pre-gap length : 00:02:00
CRC32 hash : 15CFFB0F
CRC32 hash (skip zero) : 72909386
AccurateRip v1 signature : 4455DD6B
AccurateRip v2 signature : 399121E3
->Rip may not be accurate (total 1 submission).
Statistics
Read error : 0
Jitter error (maybe fixed) : 0
Retry sector count : 0
Damaged sector count : 0
Track 02
Filename : /Volumes/LaCie/rips/Sciarrino - Quaderno di strada/01-02 - Salvatore Sciarrino - ... lo smarrimento.flac
Pre-gap length : 00:03:50
CRC32 hash : 67927205
CRC32 hash (skip zero) : 34B749AF
AccurateRip v1 signature : A089F8F2
AccurateRip v2 signature : 36214E7D
->Accurately ripped (v2, confidence 1/1)
Statistics
Read error : 0
Jitter error (maybe fixed) : 0
Retry sector count : 0
Damaged sector count : 0
Track 03
Filename : /Volumes/LaCie/rips/Sciarrino - Quaderno di strada/01-03 - Salvatore Sciarrino - ... smarrita la misura.flac
Pre-gap length : 00:04:38
CRC32 hash : 02C2078B
CRC32 hash (skip zero) : 2E9BE82C
AccurateRip v1 signature : F877FC19
AccurateRip v2 signature : 2559E49F
->Accurately ripped (v2, confidence 1/1)
Statistics
Read error : 0
Jitter error (maybe fixed) : 0
Retry sector count : 0
Damaged sector count : 0
Track 04
Filename : /Volumes/LaCie/rips/Sciarrino - Quaderno di strada/01-04 - Salvatore Sciarrino - Disse un poeta.flac
Pre-gap length : 00:03:66
CRC32 hash : 5A2FE695
CRC32 hash (skip zero) : 6CAA82FD
AccurateRip v1 signature : 8E38D533
AccurateRip v2 signature : A061AD06
->Accurately ripped (v2, confidence 1/1)
Statistics
Read error : 0
Jitter error (maybe fixed) : 0
Retry sector count : 0
Damaged sector count : 0
Track 05
Filename : /Volumes/LaCie/rips/Sciarrino - Quaderno di strada/01-05 - Salvatore Sciarrino - se spera che i sasi.flac
Pre-gap length : 00:04:46
CRC32 hash : 411EB123
CRC32 hash (skip zero) : DB77E62F
AccurateRip v1 signature : D84502BE
AccurateRip v2 signature : 46CCD5DF
->Accurately ripped (v2, confidence 1/1)
Statistics
Read error : 0
Jitter error (maybe fixed) : 0
Retry sector count : 0
Damaged sector count : 0
Track 06
Filename : /Volumes/LaCie/rips/Sciarrino - Quaderno di strada/01-06 - Salvatore Sciarrino - Dove andarono la sera i muratori.flac
Pre-gap length : 00:03:71
CRC32 hash : 807BAB86
CRC32 hash (skip zero) : 1914FFA8
AccurateRip v1 signature : 3C085412
AccurateRip v2 signature : 49752A96
->Accurately ripped (v2, confidence 1/1)
Statistics
Read error : 0
Jitter error (maybe fixed) : 0
Retry sector count : 0
Damaged sector count : 0
Track 07
Filename : /Volumes/LaCie/rips/Sciarrino - Quaderno di strada/01-07 - Salvatore Sciarrino - Anno 410.flac
Pre-gap length : 00:04:47
CRC32 hash : 8BFB5028
CRC32 hash (skip zero) : D7F9FCB7
AccurateRip v1 signature : 58B6409B
AccurateRip v2 signature : 423A2D1E
->Accurately ripped (v2, confidence 1/1)
Statistics
Read error : 0
Jitter error (maybe fixed) : 0
Retry sector count : 0
Damaged sector count : 0
Track 08
Filename : /Volumes/LaCie/rips/Sciarrino - Quaderno di strada/01-08 - Salvatore Sciarrino - La rose che si disfa.flac
Pre-gap length : 00:05:44
CRC32 hash : 32A7EC8B
CRC32 hash (skip zero) : 69D23688
AccurateRip v1 signature : 5C737F08
AccurateRip v2 signature : AD9D6446
->Accurately ripped (v2, confidence 1/1)
Statistics
Read error : 0
Jitter error (maybe fixed) : 0
Retry sector count : 0
Damaged sector count : 0
Track 09
Filename : /Volumes/LaCie/rips/Sciarrino - Quaderno di strada/01-09 - Salvatore Sciarrino - Piove.flac
Pre-gap length : 00:05:23
CRC32 hash : 0951E4B6
CRC32 hash (skip zero) : 251A4140
AccurateRip v1 signature : AC44D653
AccurateRip v2 signature : 2BEB7877
->Accurately ripped (v2, confidence 1/1)
Statistics
Read error : 0
Jitter error (maybe fixed) : 0
Retry sector count : 0
Damaged sector count : 0
Track 10
Filename : /Volumes/LaCie/rips/Sciarrino - Quaderno di strada/01-10 - Salvatore Sciarrino - Donato Creti scrisse.flac
Pre-gap length : 00:04:42
CRC32 hash : B051FE83
CRC32 hash (skip zero) : 059331BD
AccurateRip v1 signature : 240A92B0
AccurateRip v2 signature : ADCFFF04
->Accurately ripped (v2, confidence 1/1)
Statistics
Read error : 0
Jitter error (maybe fixed) : 0
Retry sector count : 0
Damaged sector count : 0
Track 11
Filename : /Volumes/LaCie/rips/Sciarrino - Quaderno di strada/01-11 - Salvatore Sciarrino - a filo del violino.flac
Pre-gap length : 00:04:16
CRC32 hash : 194900B6
CRC32 hash (skip zero) : 00638B7A
AccurateRip v1 signature : 1F070B22
AccurateRip v2 signature : A9552A0A
->Accurately ripped (v2, confidence 1/1)
Statistics
Read error : 0
Jitter error (maybe fixed) : 0
Retry sector count : 0
Damaged sector count : 0
Track 12
Filename : /Volumes/LaCie/rips/Sciarrino - Quaderno di strada/01-12 - Salvatore Sciarrino - Fior di kencur.flac
Pre-gap length : 00:05:28
CRC32 hash : 5D355A7F
CRC32 hash (skip zero) : E9E9CDB1
AccurateRip v1 signature : BCD2A7FC
AccurateRip v2 signature : 55DCADE2
->Accurately ripped (v2, confidence 1/1)
Statistics
Read error : 0
Jitter error (maybe fixed) : 0
Retry sector count : 0
Damaged sector count : 0
Track 13
Filename : /Volumes/LaCie/rips/Sciarrino - Quaderno di strada/01-13 - Salvatore Sciarrino - Du cose al mondo (Proverbio).flac
CRC32 hash : E7823BED
CRC32 hash (skip zero) : 00AA0AD6
AccurateRip v1 signature : 0D771BFC
AccurateRip v2 signature : FE5A5E43
->Accurately ripped (v2, confidence 1/1)
Statistics
Read error : 0
Jitter error (maybe fixed) : 0
Retry sector count : 0
Damaged sector count : 0
No errors occurred
End of status report

Содержание индексной карты (.CUE)

TITLE "Quaderno di strada [Otto Katzameier, Klangforum Wien, Sylvain Cambreling]"
PERFORMER "Salvatore Sciarrino"
REM GENRE "Contemporary Classical"
REM DATE "2005"
REM DISCID 8F09F10D
FILE "01-01 - Salvatore Sciarrino - se non ora, quando?.flac" WAVE
TRACK 01 AUDIO
TITLE "se non ora, quando?"
FLAGS DCP
INDEX 01 00:00:00
TRACK 02 AUDIO
TITLE "... lo smarrimento"
FLAGS DCP
INDEX 00 02:25:24
FILE "01-02 - Salvatore Sciarrino - ... lo smarrimento.flac" WAVE
INDEX 01 00:00:00
TRACK 03 AUDIO
TITLE "... smarrita la misura"
FLAGS DCP
INDEX 00 02:41:45
FILE "01-03 - Salvatore Sciarrino - ... smarrita la misura.flac" WAVE
INDEX 01 00:00:00
TRACK 04 AUDIO
TITLE "Disse un poeta"
FLAGS DCP
INDEX 00 03:17:30
FILE "01-04 - Salvatore Sciarrino - Disse un poeta.flac" WAVE
INDEX 01 00:00:00
TRACK 05 AUDIO
TITLE "se spera che i sasi"
FLAGS DCP
INDEX 00 02:07:25
FILE "01-05 - Salvatore Sciarrino - se spera che i sasi.flac" WAVE
INDEX 01 00:00:00
TRACK 06 AUDIO
TITLE "Dove andarono la sera i muratori"
FLAGS DCP
INDEX 00 01:47:00
FILE "01-06 - Salvatore Sciarrino - Dove andarono la sera i muratori.flac" WAVE
INDEX 01 00:00:00
TRACK 07 AUDIO
TITLE "Anno 410"
FLAGS DCP
INDEX 00 02:15:10
FILE "01-07 - Salvatore Sciarrino - Anno 410.flac" WAVE
INDEX 01 00:00:00
TRACK 08 AUDIO
TITLE "La rose che si disfa"
FLAGS DCP
INDEX 00 05:15:36
FILE "01-08 - Salvatore Sciarrino - La rose che si disfa.flac" WAVE
INDEX 01 00:00:00
TRACK 09 AUDIO
TITLE "Piove"
FLAGS DCP
INDEX 00 05:05:06
FILE "01-09 - Salvatore Sciarrino - Piove.flac" WAVE
INDEX 01 00:00:00
TRACK 10 AUDIO
TITLE "Donato Creti scrisse"
FLAGS DCP
INDEX 00 01:32:28
FILE "01-10 - Salvatore Sciarrino - Donato Creti scrisse.flac" WAVE
INDEX 01 00:00:00
TRACK 11 AUDIO
TITLE "a filo del violino"
FLAGS DCP
INDEX 00 03:42:22
FILE "01-11 - Salvatore Sciarrino - a filo del violino.flac" WAVE
INDEX 01 00:00:00
TRACK 12 AUDIO
TITLE "Fior di kencur"
FLAGS DCP
INDEX 00 02:41:41
FILE "01-12 - Salvatore Sciarrino - Fior di kencur.flac" WAVE
INDEX 01 00:00:00
FILE "01-13 - Salvatore Sciarrino - Du cose al mondo (Proverbio).flac" WAVE
TRACK 13 AUDIO
TITLE "Du cose al mondo (Proverbio)"
FLAGS DCP
INDEX 01 00:00:00
Доп. информация: with texts in Italian



Показать сообщения:    

Текущее время: 07-Дек 13:39

Часовой пояс: UTC + 3


Вы не можете начинать темы
Вы не можете отвечать на сообщения
Вы не можете редактировать свои сообщения
Вы не можете удалять свои сообщения
Вы не можете голосовать в опросах
Вы не можете прикреплять файлы к сообщениям
Вы не можете скачивать файлы