Знаменитые соблазнители (6 серии из 6) / Документальное кино Леонида Млечина (Александр Седельников) [2014, Биография, киноведение, кинохроника, SATRip] (обновлено 01.11.2014)


Статистика раздачи [Обновить пиров]
Размер:  2.68 GB   |    Зарегистрирован:  8 месяцев 22 дня   |    Скачан:  0 раз

Полного источника не было: Никогда

Личеров:  6  [  0 KB/s  ]   Подробная статистика пиров
 
   
 
 
 

[Цитировать]

Знаменитые соблазнители (6 серии из 6) / Документальное кино Леонида Млечина
Год выпуска: 2014
Страна: Россия
Жанр: Биография, киноведение, кинохроника
Продолжительность: 6 х ~ 00:39:00
Перевод: Не требуется
Режиссер: Александр Седельников, Екатерина Гальперина, Игорь Максимчук
Ведущий: Леонид Млечин
Телеканал: ТВ Центр
Описание: 26 февраля 2014 года в эфире телеканала "ТВ Центр" состоялась премьера нового документального фильма "Знаменитые соблазнители ", в роли ведущего и автора которого выступил известный российский документалист Леонид Млечин. Сюжет картины посвящен рассказу о непростой личной жизни легендарных американских актёров.

1. Основной инстинкт Майкла Дугласа

Описание: Необузданный сексуальный темперамент Майкла Дугласа уже давно стал одной из легенд Голливуда. По настоянию жены он даже лег в клинику, чтобы умерить свой основной инстинкт. Лечение, кажется, не помогло, и одно роковое влечение сменяет другое. Однако в семейной жизни Дуглас консерватор и полагает, что место жены – дома.
Видео: Xvid, MPEG-4 Visual, 704 x 528 (1.333), 1499 Kbps, 25.000 fps
Аудио: MP3, MPEG Audio, 2 ch, 128 Kbps, 48.0 KHz

2. Джек Николсон и его женщины

Описание: Судьба голливудской знаменитости Джека Николсона соткана из противоречий. Грандиозная карьера в кино – и заниженная самооценка. Невероятный успех у женщин – и внутренняя неуверенность. Не потому ли все его романы заканчивались неудачно? Почему великий любовник не способен удержать ни одну женщину? Возможно, причины кроются в загадочных обстоятельствах его появления на свет?
Видео: Xvid, MPEG-4 Visual, 704 x 528 (1.333), 1498 Kbps, 25.000 fps
Аудио: MP3, MPEG Audio, 2 ch, 128 Kbps, 48.0 KHz

3. Патрик Суэйзи. Удержаться на гребне волны

Описание: Знаменитого киноактера Патрика Суэйзи называли "самым сексуальным мужчиной" даже не Голливуда, а всей Америки. Гибкий, с танцующей походкой, он снискал репутацию покорителя дамских сердец. Женщины не могли противостоять редкому сочетанию мужественности и нежности. Но мало кто знает, какие испытания выпали на долю того, кого называли "Мистер Секс".
Видео: Xvid, MPEG-4 Visual, 704 x 528 (1.333), 1500 Kbps, 25.000 fps
Аудио: MP3, MPEG Audio, 2 ch, 128 Kbps, 48.0 KHz

4. Шон Коннери. Рожденный соблазнять

Описание: Когда в начале 60-х Шону Коннери предложили роль Джеймса Бонда, он был неизвестным начинающим актёром. Одобрить кандидатуру секретного агента должен был сам Ян Флеминг – автор романов о Бонде. Они вместе пообедали. Флемингу простоватый Коннери не понравился. Он сомневался, что этот шотландский пролетарий способен перевоплотиться в британского джентльмена. Однако он ошибался…
Видео: Xvid, MPEG-4 Visual, 704 x 528 (1.333), 1499 Kbps, 25.000 fps
Аудио: MP3, MPEG Audio, 2 ch, 128 Kbps, 48.0 KHz

5. Клинт Иствуд. Моралист с кольтом

Описание: "Никто не верил, что я чего-нибудь добьюсь в жизни, – говорит Клинт Иствуд. – Так что я сильно расстроил тех, кто повторял, что из меня ничего не выйдет". Путь Клинта к самым вершинам и впрямь был непростым – и в своём фильме Леонид Млечин показывает его от начала до сегодняшнего дня.
Видео: Xvid, MPEG-4 Visual, 704 x 528 (1.333), 1499 Kbps, 25.000 fps
Аудио: MP3, MPEG Audio, 2 ch, 128 Kbps, 48.0 KHz

6. Джейсон Стэтхэм. Очарование криминального авторитета

Описание: Каждой эпохе - свои киногерои. В 21 веке на первый план вышел британец по происхождению Джейсон Стэтхэм. В его послужном списке удачные фильмы, которые принесли уже миллиард долларов. Впереди - продолжение завидной кинокарьеры. Рядом с ним - супермодель. И всё это счастье досталось человеку, который торговал на улице подделками и которого ждала встреча с полицией не на экране, а в жизни.
Видео: Xvid, MPEG-4 Visual, 704 x 528 (1.333), 1499 Kbps, 25.000 fps
Аудио: MP3, MPEG Audio, 2 ch, 128 Kbps, 48.0 KHz
Доп. информация: Релиз-группа DaVinci
Ripped by Xaоc, телеканал «ТВ Центр»
качество: SATRip
формат: AVI
Видео: Xvid, MPEG-4 Visual, 704 x 528 (1.333), ~ 1500 Kbps, 25.000 fps
Аудио: MP3, MPEG Audio, 2 ch, 128 Kbps, 48.0 KHz

MediaInfo

Format                                   : AVI
Format/Info : Audio Video Interleave
File size : 455 MiB
Duration : 38mn 50s
Overall bit rate : 1 638 Kbps
Writing library : VirtualDub build 35390/release
Video
ID : 0
Format : MPEG-4 Visual
Format profile : Advanced Simple@L5
Format settings, BVOP : 2
Format settings, QPel : No
Format settings, GMC : No warppoints
Format settings, Matrix : Default (H.263)
Muxing mode : Packed bitstream
Codec ID : XVID
Codec ID/Hint : XviD
Duration : 38mn 50s
Bit rate : 1 500 Kbps
Width : 704 pixels
Height : 528 pixels
Display aspect ratio : 4:3
Frame rate : 25.000 fps
Color space : YUV
Chroma subsampling : 4:2:0
Bit depth : 8 bits
Scan type : Progressive
Compression mode : Lossy
Bits/(Pixel*Frame) : 0.161
Stream size : 417 MiB (92%)
Writing library : XviD 1.2.1 (UTC 2008-12-04)
Audio
ID : 1
Format : MPEG Audio
Format version : Version 1
Format profile : Layer 3
Mode : Joint stereo
Mode extension : MS Stereo
Codec ID : 55
Codec ID/Hint : MP3
Duration : 38mn 50s
Bit rate mode : Constant
Bit rate : 128 Kbps
Channel(s) : 2 channels
Sampling rate : 48.0 KHz
Compression mode : Lossy
Stream size : 35.6 MiB (8%)
Alignment : Split accross interleaves
Interleave, duration : 40 ms (1.00 video frame)
Interleave, preload duration : 500 ms
Не забывай говорить "Спасибо"
Пожалуйста не уходите с раздачи!
ТОРРЕНТ ОБНОВЛЁН!Добавлены новые выпуски!
[teatrix.ru].t18936.torrent 
Торрент: Зарегистрирован [ 2016-03-18 12:24 ] · D17DA049228366227F3B1481E6EDD7AADE007305

Скачать .torrent

Скачать

15 KB

Статус: проверено
Скачан: 0 раз
Размер: 2.68 GB
terms.php



Быстрый ответ

Имя:

      
Для отправки сообщений необходимо включить JavaScript
Показать сообщения:    

Текущее время: 10-Дек 06:05

Часовой пояс: UTC + 3


Вы можете начинать темы
Вы можете отвечать на сообщения
Вы не можете редактировать свои сообщения
Вы не можете удалять свои сообщения
Вы не можете голосовать в опросах
Вы не можете прикреплять файлы к сообщениям
Вы можете скачивать файлы