(Vocal)Handel - Complete Cantatas Vol.2,*HWV 173 Un´alma innamorata*HWV144 O lucenti, o sereni occhi*HWV104 Del bell´idolo mio*HWV084 Aure soavi e liete*HWV170 Tra le fiamme(True - Contrasto Armonico, Vitale)-2009,APE(image+.cue)lossles


 

[Цитировать]

Handel - Complete Cantatas Vol.2
Жанр: Vocal/Cantata
Страна-производитель диска: EU
Год издания диска: 2009
Издатель (лейбл): Brilliant Classics
Номер по каталогу: 94000
Дата записи: 2009
Аудиокодек: APE
Тип рипа: image+.cue
Битрейт аудио: lossless
Продолжительность: 57'16
Источник: собственный рип
Наличие сканов в содержимом раздачи: да
Треклист:
HWV 173 - Un´alma innamorata
1. Reci,
2. Aria, Quel povero core
3. Reci, E pur benché egli veda
4. Aria, Io godo, rido e spero
5. Reci, In quanto a me
6. Aria, Ben impari come s´amaHWV 144 - O lucenti, o sereni occhi
7. Reci
8. Aria, Per voi languisco e moro
9. Reci, Messaggiero e verace
10. Aria, In voi, pupille ardentiHWV 104 - Del bell´idolo mio
11. Reci
13. Aria, Formidabil gondoliero
14. Reci, Ma se non la rinvengo
15. Aria, Piangeró
16. Reci, Fra quell´orride soglie
17. Aria, Su rendetemi coleiHWV 084 - Aure soavi e liete
18. Reci
19. Aria, Care luci
20. Reci, Pietá, Clori pietá
21. Aria, Un´aura flebileHWV 170 - Tra le fiamme
22. Aria
23. Reci, Dedalo giá
24. Aria, Pien di nuovo e bel diletto
25. Reci, Si, si, purtroppo é vero
26. Aria, Voli per l´aria
27. Reci, L´uomo che nacque
28. Aria, Tra le fiamme
Исполнители:
Stefanie True (Soprano)
Contrasto Armonico Baroque Orchestra
Marco Vitale

Лог создания рипа

Exact Audio Copy V1.0 beta 3 from 29. August 2011
EAC extraction logfile from 27. July 2014, 12:23
Handel / Complete Cantatas Vol.2, Vitale
Used drive : TSSTcorpCDDVDW SE-208AB Adapter: 1 ID: 0
Read mode : Secure
Utilize accurate stream : Yes
Defeat audio cache : Yes
Make use of C2 pointers : No
Read offset correction : 6
Overread into Lead-In and Lead-Out : No
Fill up missing offset samples with silence : Yes
Delete leading and trailing silent blocks : No
Null samples used in CRC calculations : Yes
Used interface : Native Win32 interface for Win NT & 2000
Used output format : Monkey's Audio Lossless Encoder
Selected bitrate : High Lossless Compression
Quality : High
Add ID3 tag : No
Command line compressor : C:\Program Files (x86)\Exact Audio Copy\MAC\MAC.exe
TOC of the extracted CD
Track | Start | Length | Start sector | End sector
---------------------------------------------------------
1 | 0:00.00 | 0:36.60 | 0 | 2759
2 | 0:36.60 | 7:11.66 | 2760 | 35150
3 | 7:48.51 | 0:24.13 | 35151 | 36963
4 | 8:12.64 | 5:12.00 | 36964 | 60363
5 | 13:24.64 | 0:19.73 | 60364 | 61861
6 | 13:44.62 | 1:37.58 | 61862 | 69194
7 | 15:22.45 | 0:34.30 | 69195 | 71774
8 | 15:57.00 | 3:52.08 | 71775 | 89182
9 | 19:49.08 | 0:32.50 | 89183 | 91632
10 | 20:21.58 | 3:08.47 | 91633 | 105779
11 | 23:30.30 | 0:54.32 | 105780 | 109861
12 | 24:24.62 | 4:19.45 | 109862 | 129331
13 | 28:44.32 | 0:18.42 | 129332 | 130723
14 | 29:02.74 | 3:29.42 | 130724 | 146440
15 | 32:32.41 | 0:20.07 | 146441 | 147947
16 | 32:52.48 | 1:20.53 | 147948 | 154000
17 | 34:13.26 | 1:18.21 | 154001 | 159871
18 | 35:31.47 | 2:06.08 | 159872 | 169329
19 | 37:37.55 | 0:32.06 | 169330 | 171735
20 | 38:09.61 | 1:32.58 | 171736 | 178693
21 | 39:42.44 | 5:34.07 | 178694 | 203750
22 | 45:16.51 | 1:02.47 | 203751 | 208447
23 | 46:19.23 | 5:04.66 | 208448 | 231313
24 | 51:24.14 | 0:17.33 | 231314 | 232621
25 | 51:41.47 | 2:42.11 | 232622 | 244782
26 | 54:23.58 | 0:25.41 | 244783 | 246698
27 | 54:49.24 | 2:27.28 | 246699 | 257751
Range status and errors
Selected range
Filename D:\EAC\Handel - Complete Cantatas Vol.2, Vitale.wav
Peak level 96.8 %
Extraction speed 4.4 X
Range quality 100.0 %
Test CRC 93297DF3
Copy CRC 93297DF3
Copy OK
No errors occurred
AccurateRip summary
Track 1 cannot be verified as accurate (confidence 7) [3B3288C8], AccurateRip returned [9DBA5341] (AR v2)
Track 2 cannot be verified as accurate (confidence 7) [5924F211], AccurateRip returned [48583D3D] (AR v2)
Track 3 cannot be verified as accurate (confidence 7) [4317D378], AccurateRip returned [BCF2C209] (AR v2)
Track 4 cannot be verified as accurate (confidence 7) [1BC44D11], AccurateRip returned [F9F18967] (AR v2)
Track 5 cannot be verified as accurate (confidence 7) [65A1B79A], AccurateRip returned [F606B8CB] (AR v2)
Track 6 cannot be verified as accurate (confidence 7) [F0A1B079], AccurateRip returned [DE1306E8] (AR v2)
Track 7 cannot be verified as accurate (confidence 7) [5C913E61], AccurateRip returned [345F2A32] (AR v2)
Track 8 cannot be verified as accurate (confidence 7) [B3DDEEFA], AccurateRip returned [642825AF] (AR v2)
Track 9 cannot be verified as accurate (confidence 7) [981C48F3], AccurateRip returned [2CE7FBBC] (AR v2)
Track 10 cannot be verified as accurate (confidence 7) [D61482F3], AccurateRip returned [653DEFB5] (AR v2)
Track 11 cannot be verified as accurate (confidence 7) [79B6B667], AccurateRip returned [5134732B] (AR v2)
Track 12 cannot be verified as accurate (confidence 7) [D9C81DC8], AccurateRip returned [F46158F1] (AR v2)
Track 13 cannot be verified as accurate (confidence 7) [10B5DB7E], AccurateRip returned [7B764A66] (AR v2)
Track 14 cannot be verified as accurate (confidence 7) [AEE39EC3], AccurateRip returned [ED6C4551] (AR v2)
Track 15 cannot be verified as accurate (confidence 7) [FAC4BF11], AccurateRip returned [91FFEA6A] (AR v2)
Track 16 cannot be verified as accurate (confidence 7) [22220AEF], AccurateRip returned [124EC390] (AR v2)
Track 17 cannot be verified as accurate (confidence 7) [77BC206E], AccurateRip returned [CB509CAC] (AR v2)
Track 18 cannot be verified as accurate (confidence 7) [E832A55C], AccurateRip returned [DF6ABC47] (AR v2)
Track 19 cannot be verified as accurate (confidence 7) [BAB9076C], AccurateRip returned [0CD42B75] (AR v2)
Track 20 cannot be verified as accurate (confidence 7) [87F897D0], AccurateRip returned [6FE69973] (AR v2)
Track 21 cannot be verified as accurate (confidence 7) [70CAD9B7], AccurateRip returned [34E1DA88] (AR v2)
Track 22 cannot be verified as accurate (confidence 7) [27B9C6D8], AccurateRip returned [30BF208A] (AR v2)
Track 23 cannot be verified as accurate (confidence 7) [C55C9E22], AccurateRip returned [107F3FB7] (AR v2)
Track 24 cannot be verified as accurate (confidence 7) [1906B2C6], AccurateRip returned [609EB323] (AR v2)
Track 25 cannot be verified as accurate (confidence 7) [4FC02829], AccurateRip returned [B2723F2E] (AR v2)
Track 26 cannot be verified as accurate (confidence 7) [3E250760], AccurateRip returned [5AF26D71] (AR v2)
Track 27 cannot be verified as accurate (confidence 7) [9A1B37E3], AccurateRip returned [E7A8620B] (AR v2)
No tracks could be verified as accurate
You may have a different pressing from the one(s) in the database
End of status report
---- CUETools DB Plugin V2.1.3
[CTDB TOCID: mR_p4z_l_RflnKCkWxJdBaRCQlE-] found, Submit result: mR_p4z_l_RflnKCkWxJdBaRCQlE- has been confirmed
[12feb24d] (6/7) Accurately ripped
[71dbc6e6] (1/7) No match
==== Log checksum B9176A57EBEF688E01B2B63BF4C605414B30C1B019B049AED86B3436A8C01766 ====

Содержание индексной карты (.CUE)

REM GENRE Cantatas
REM DATE 2009
REM DISCID 840D6C1B
REM COMMENT "ExactAudioCopy v1.0b3"
PERFORMER "Handel"
TITLE "Complete Cantatas Vol.2, Vitale"
FILE "Handel - Complete Cantatas Vol.2, Vitale.ape" WAVE
TRACK 01 AUDIO
TITLE "HWV 173 - Un´alma innamorata - 1 Reci,"
PERFORMER "Handel"
ISRC NLY330902871
FLAGS DCP
INDEX 01 00:00:00
TRACK 02 AUDIO
TITLE "HWV 173 - Un´alma innamorata - 2 Aria, Quel povero core"
PERFORMER "Handel"
ISRC NLY330902872
FLAGS DCP
INDEX 01 00:36:60
TRACK 03 AUDIO
TITLE "HWV 173 - Un´alma innamorata - 3 Reci, E pur benché egli veda"
PERFORMER "Handel"
ISRC NLY330902873
FLAGS DCP
INDEX 01 07:48:51
TRACK 04 AUDIO
TITLE "HWV 173 - Un´alma innamorata - 4 Aria, Io godo, rido e spero"
PERFORMER "Handel"
ISRC NLY330902874
FLAGS DCP
INDEX 01 08:12:64
TRACK 05 AUDIO
TITLE "HWV 173 - Un´alma innamorata - 5 Reci, In quanto a me"
PERFORMER "Handel"
ISRC NLY330902875
FLAGS DCP
INDEX 01 13:24:64
TRACK 06 AUDIO
TITLE "HWV 173 - Un´alma innamorata - 6 Aria, Ben impari come s´ama"
PERFORMER "Handel"
ISRC NLY330902876
FLAGS DCP
INDEX 01 13:44:62
TRACK 07 AUDIO
TITLE "HWV 144 - O lucenti, o sereni occhi - 1 Reci"
PERFORMER "Handel"
ISRC NLY330902877
FLAGS DCP
INDEX 01 15:22:45
TRACK 08 AUDIO
TITLE "HWV 144 - O lucenti, o sereni occhi - 2 Aria, Per voi languisco e moro"
PERFORMER "Handel"
ISRC NLY330902878
FLAGS DCP
INDEX 01 15:57:00
TRACK 09 AUDIO
TITLE "HWV 144 - O lucenti, o sereni occhi - 3 Reci, Messaggiero e verace"
PERFORMER "Handel"
ISRC NLY330902879
FLAGS DCP
INDEX 01 19:49:08
TRACK 10 AUDIO
TITLE "HWV 144 - O lucenti, o sereni occhi - 4 Aria, In voi, pupille ardenti"
PERFORMER "Handel"
ISRC NLY330902880
FLAGS DCP
INDEX 01 20:21:58
TRACK 11 AUDIO
TITLE "HWV 104 - Del bell´idolo mio - 1 Reci"
PERFORMER "Handel"
ISRC NLY330902881
FLAGS DCP
INDEX 01 23:30:30
TRACK 12 AUDIO
TITLE "HWV 104 - Del bell´idolo mio - 2 Aria, Formidabil gondoliero"
PERFORMER "Handel"
ISRC NLY330902882
FLAGS DCP
INDEX 01 24:24:62
TRACK 13 AUDIO
TITLE "HWV 104 - Del bell´idolo mio - 3 Reci, Ma se non la rinvengo"
PERFORMER "Handel"
ISRC NLY330902883
FLAGS DCP
INDEX 01 28:44:32
TRACK 14 AUDIO
TITLE "HWV 104 - Del bell´idolo mio - 4 Aria, Piangeró"
PERFORMER "Handel"
ISRC NLY330902884
FLAGS DCP
INDEX 01 29:02:74
TRACK 15 AUDIO
TITLE "HWV 104 - Del bell´idolo mio - 5 Reci, Fra quell´orride soglie"
PERFORMER "Handel"
ISRC NLY330902885
FLAGS DCP
INDEX 01 32:32:41
TRACK 16 AUDIO
TITLE "HWV 104 - Del bell´idolo mio - 6 Aria, Su rendetemi colei"
PERFORMER "Handel"
ISRC NLY330902886
FLAGS DCP
INDEX 01 32:52:48
TRACK 17 AUDIO
TITLE "HWV 084 - Aure soavi e liete - 1 Reci"
PERFORMER "Handel"
ISRC NLY330902887
FLAGS DCP
INDEX 01 34:13:26
TRACK 18 AUDIO
TITLE "HWV 084 - Aure soavi e liete - 2 Aria, Care luci"
PERFORMER "Handel"
ISRC NLY330902888
FLAGS DCP
INDEX 01 35:31:47
TRACK 19 AUDIO
TITLE "HWV 084 - Aure soavi e liete - 3 Reci, Pietá, Clori pietá"
PERFORMER "Handel"
ISRC NLY330902889
FLAGS DCP
INDEX 01 37:37:55
TRACK 20 AUDIO
TITLE "HWV 084 - Aure soavi e liete - 4 Aria, Un´aura flebile"
PERFORMER "Handel"
ISRC NLY330902890
FLAGS DCP
INDEX 01 38:09:61
TRACK 21 AUDIO
TITLE "HWV 170 - Tra le fiamme - 1 Aria"
PERFORMER "Handel"
ISRC NLY330902891
FLAGS DCP
INDEX 01 39:42:44
TRACK 22 AUDIO
TITLE "HWV 170 - Tra le fiamme - 2 Reci, Dedalo giá"
PERFORMER "Handel"
ISRC NLY330902892
FLAGS DCP
INDEX 01 45:16:51
TRACK 23 AUDIO
TITLE "HWV 170 - Tra le fiamme - 3 Aria, Pien di nuovo e bel diletto"
PERFORMER "Handel"
ISRC NLY330902893
FLAGS DCP
INDEX 01 46:19:23
TRACK 24 AUDIO
TITLE "HWV 170 - Tra le fiamme - 4 Reci, Si, si, purtroppo é vero"
PERFORMER "Handel"
ISRC NLY330902894
FLAGS DCP
INDEX 01 51:24:14
TRACK 25 AUDIO
TITLE "HWV 170 - Tra le fiamme - 5 Aria, Voli per l´aria"
PERFORMER "Handel"
ISRC NLY330902894
FLAGS DCP
INDEX 01 51:41:47
TRACK 26 AUDIO
TITLE "HWV 170 - Tra le fiamme - 6 Reci, L´uomo che nacque"
PERFORMER "Handel"
ISRC NLY330902896
FLAGS DCP
INDEX 01 54:23:58
TRACK 27 AUDIO
TITLE "HWV 170 - Tra le fiamme - 7 Aria, Tra le fiamme"
PERFORMER "Handel"
ISRC NLY330902897
FLAGS DCP
INDEX 01 54:49:24



Показать сообщения:    

Текущее время: 11-Дек 09:09

Часовой пояс: UTC + 3


Вы не можете начинать темы
Вы не можете отвечать на сообщения
Вы не можете редактировать свои сообщения
Вы не можете удалять свои сообщения
Вы не можете голосовать в опросах
Вы не можете прикреплять файлы к сообщениям
Вы не можете скачивать файлы