(Classical, 20th century) Benjamin Britten - String Quartets 1, 2 & 3 - Takacs Quartet - 2013, FLAC (image+.cue) lossless


 

[Цитировать]

Benjamin Britten - String Quartets 1, 2 & 3 - Takács Quartet
Жанр: Classical, 20th century
Страна-производитель диска: UK
Год издания диска: 2013
Издатель (лейбл): Hyperion
Номер по каталогу: CDA68004
Дата записи: 2013
Аудиокодек: FLAC
Тип рипа: image+.cue
Битрейт аудио: lossless
Продолжительность: 75:55
Источник: собственный рип
Наличие сканов в содержимом раздачи: да
Треклист:
Benjamin Britten (1913-1976)
[1]-[4] String Quartet No.1 in D major, Op.25 (1941)
[5]-[7] String Quartet No.2 in C major, Op.36 (1945)
[8]-[12] String Quartet No.3, Op.94 (1975)
Исполнители:
Takács Quartet
Edward Dusinberre violin
Károly Schranz violin
Geraldine Walther viola
András Fejér cello

Лог создания рипа

Exact Audio Copy V1.0 beta 3 from 29. August 2011
EAC extraction logfile from 24. May 2014, 16:26
Takacs Quartet / Britten - String Quartets
Used drive : HL-DT-STDVDRAM GSA-4083N Adapter: 1 ID: 0
Read mode : Secure
Utilize accurate stream : Yes
Defeat audio cache : Yes
Make use of C2 pointers : No
Read offset correction : 667
Overread into Lead-In and Lead-Out : No
Fill up missing offset samples with silence : Yes
Delete leading and trailing silent blocks : No
Null samples used in CRC calculations : Yes
Used interface : Native Win32 interface for Win NT & 2000
Used output format : User Defined Encoder
Selected bitrate : 896 kBit/s
Quality : High
Add ID3 tag : No
Command line compressor : C:\Program Files\Exact Audio Copy\Flac\flac.exe
Additional command line options : -V -8 %source%
TOC of the extracted CD
Track | Start | Length | Start sector | End sector
---------------------------------------------------------
1 | 0:00.00 | 8:25.50 | 0 | 37924
2 | 8:25.50 | 2:59.66 | 37925 | 51415
3 | 11:25.41 | 8:50.04 | 51416 | 91169
4 | 20:15.45 | 3:56.15 | 91170 | 108884
5 | 24:11.60 | 8:03.10 | 108885 | 145119
6 | 32:14.70 | 3:43.36 | 145120 | 161880
7 | 35:58.31 | 15:05.54 | 161881 | 229809
8 | 51:04.10 | 5:49.56 | 229810 | 256040
9 | 56:53.66 | 3:08.71 | 256041 | 270211
10 | 60:02.62 | 4:33.13 | 270212 | 290699
11 | 64:36.00 | 2:17.11 | 290700 | 300985
12 | 66:53.11 | 9:00.56 | 300986 | 341541
Range status and errors
Selected range
Filename J:\New Music\CDA68004 - Britten - String Quartets 1, 2 & 3 (Takacs Quartet - HYPERION)\CD\Britten - String Quartets.wav
Peak level 85.2 %
Extraction speed 2.7 X
Range quality 100.0 %
Test CRC 81E605D1
Copy CRC 81E605D1
Copy OK
No errors occurred
AccurateRip summary
Track 1 not present in database
Track 2 not present in database
Track 3 not present in database
Track 4 not present in database
Track 5 not present in database
Track 6 not present in database
Track 7 not present in database
Track 8 not present in database
Track 9 not present in database
Track 10 not present in database
Track 11 not present in database
Track 12 not present in database
None of the tracks are present in the AccurateRip database
End of status report
==== Log checksum 1305F05EF4DDBCEE8DB5D307DE40FC68C55E53FBD3916B07A1D1444CA0E1CECE ====



Показать сообщения:    

Текущее время: 11-Дек 12:57

Часовой пояс: UTC + 3


Вы не можете начинать темы
Вы не можете отвечать на сообщения
Вы не можете редактировать свои сообщения
Вы не можете удалять свои сообщения
Вы не можете голосовать в опросах
Вы не можете прикреплять файлы к сообщениям
Вы не можете скачивать файлы