(Classical) The Glory of Music in Venice - I Solisti Italiani (Maderna, Malipiero, Wolf-Ferrari, Galuppi, Albinoni, Vivaldi, Gabrieli) - 2011, FLAC (image+.cue) lossless


Статистика раздачи [Обновить пиров]
Размер:  394 MB   |    Зарегистрирован:  8 месяцев 24 дня   |    Скачан:  1 раз

Полного источника не было: 1 месяц 18 дней

Личеров:  6  [  0 KB/s  ]   Подробная статистика пиров
 
   
 
 
 

[Цитировать]

The Glory of Music in Venice
Жанр: Classical
Страна-производитель диска: Japan
Год издания диска: 2011
Издатель (лейбл): DENON
Номер по каталогу: COCO-73248
Дата записи: 1995
Аудиокодек: FLAC
Тип рипа: image+.cue
Битрейт аудио: lossless
Продолжительность: 73:51
Источник: собственный рип
Наличие сканов в содержимом раздачи: да

Треклист:

Bruno Maderna (1920-1973)
1. Dialodia for 2 Violins (1972)
Gian Francesco Malipiero (1882-1973)
2. Fantasia Concertante, I for Strings (1954)
Ermanno Wolf-Ferrari (1876-1948)
Serenade in E-flat major for String Orchestra (1893?)
3. I - Allegro
4. II - Andante
5. III - Scherzo
6. IV- Finale; Presto
Baldassare Galuppi (1706-1785)
Concerto in G major for Harpsichord, Strings and Basso Continuo
7. I - Allegro
8. II - Andantino con moto
9. III - Allegro
Tommaso Giovanni Albinoni (1671-1751)
Sonata a cinque (in five voices) in G minor, Op.2 No.6

10. I - Adagio
11. II - Allegro
12. III - Grave
13. IV- Allegro
Antonio Vivaldi (1678-1741)
Concerto in С major for Mandolin, Strings and Basso Continuo, RV.425

14. I - Allegro
15. II - Largo
16. III - (Allegro)
Giovanni Gabrieli (1553/56-1612)
17. Canzon Prima
18. Sonata con tre violini (Sonata XXI)

Исполнители:

I Solisti Italiani
violin:
Giovanni Guglielmo - Francesco Gobetti (Venezia 1721)
Giqino Maestri - Matteo Gofriller (Venezia 1706)
Fedrico Guglielmo - Luiei Lanaro (Abano 1981)
Luca Fanfoni - Lorenzo Frienani (1980)
Antonio De Secondi - Stefano Scarampella (Mantova 1905)
Carlo Lazari - Pellizzon family (Gorizia end of 18ct.)
viola:
Alfonso Ghedin - Joannes Gagliano (Nalopi 1800)
Marcello Turio - Joannes Flores Guidantus (Bologna 1710)
violoncello:
Mihai Dancila - Francesco Rugeri (18ct.)
Piero Bosna - Claude Lebet (1994)
double bass:
Augusto Salentini - Enrico Ceruti (19ct.)
mandolin:
Luca Fanfoni - Anonymous (Napoli 18ct.)
For GABRIELI (Original Instruments)
violin:
Giovanni Guglielmo - Calcanius Bernardus (Genova 1710)
Fedrico Guglielmo - P.A. Testore (Milano 18ct.)
Carlo Lazari - Anonymous (Venetian School, 17ct.)
viola:
Alfonso Ghedin - Georg Klotz (Mitt. 1779)
violoncello:
Piero Bosna - Giovanni Maria Valenzano 1801
bass:
Augusto Salentini - Anonymous (17ct.)

EAC log

Exact Audio Copy V1.0 beta 3 from 29. August 2011
EAC extraction logfile from 26. July 2014, 17:02
Unknown Artist / Unknown Title
Used drive : Optaiarc DVD RW AD-7173A Adapter: 3 ID: 0
Read mode : Secure
Utilize accurate stream : Yes
Defeat audio cache : Yes
Make use of C2 pointers : No
Read offset correction : 48
Overread into Lead-In and Lead-Out : No
Fill up missing offset samples with silence : Yes
Delete leading and trailing silent blocks : No
Null samples used in CRC calculations : Yes
Used interface : Native Win32 interface for Win NT & 2000
Used output format : Internal WAV Routines
Sample format : 44.100 Hz; 16 Bit; Stereo
TOC of the extracted CD
Track | Start | Length | Start sector | End sector
---------------------------------------------------------
1 | 0:00.00 | 2:20.67 | 0 | 10566
2 | 2:20.67 | 11:59.15 | 10567 | 64506
3 | 14:20.07 | 8:04.28 | 64507 | 100834
4 | 22:24.35 | 6:26.35 | 100835 | 129819
5 | 28:50.70 | 2:54.40 | 129820 | 142909
6 | 31:45.35 | 5:49.02 | 142910 | 169086
7 | 37:34.37 | 3:43.45 | 169087 | 185856
8 | 41:18.07 | 3:08.73 | 185857 | 200029
9 | 44:27.05 | 4:38.37 | 200030 | 220916
10 | 49:05.42 | 1:44.23 | 220917 | 228739
11 | 50:49.65 | 2:25.17 | 228740 | 239631
12 | 53:15.07 | 2:08.55 | 239632 | 249286
13 | 55:23.62 | 1:55.30 | 249287 | 257941
14 | 57:19.17 | 3:27.38 | 257942 | 273504
15 | 60:46.55 | 2:27.02 | 273505 | 284531
16 | 63:13.57 | 2:59.43 | 284532 | 297999
17 | 66:13.25 | 4:24.67 | 298000 | 317866
18 | 70:38.17 | 3:13.48 | 317867 | 332389
Range status and errors
Selected range
Filename C:\Scanned\1\Unknown Artist - Unknown Title.wav
Peak level 100.0 %
Extraction speed 5.4 X
Range quality 99.9 %
Copy CRC 6B456D31
Copy OK
No errors occurred
AccurateRip summary
Track 1 accurately ripped (confidence 2) [6872CE8C] (AR v2)
Track 2 accurately ripped (confidence 2) [2F3902D1] (AR v2)
Track 3 accurately ripped (confidence 2) [DB2921E1] (AR v2)
Track 4 accurately ripped (confidence 2) [567B84AC] (AR v2)
Track 5 accurately ripped (confidence 2) [409C8E4F] (AR v2)
Track 6 accurately ripped (confidence 2) [28F56330] (AR v2)
Track 7 accurately ripped (confidence 2) [297E437B] (AR v2)
Track 8 accurately ripped (confidence 2) [7A19CF8D] (AR v2)
Track 9 accurately ripped (confidence 2) [5BDBCC8C] (AR v2)
Track 10 accurately ripped (confidence 2) [19F05761] (AR v2)
Track 11 accurately ripped (confidence 2) [FFCE2757] (AR v2)
Track 12 accurately ripped (confidence 2) [6D5F7B7C] (AR v2)
Track 13 accurately ripped (confidence 2) [2890DB28] (AR v2)
Track 14 accurately ripped (confidence 2) [5654928F] (AR v2)
Track 15 accurately ripped (confidence 2) [A19B7C8D] (AR v2)
Track 16 accurately ripped (confidence 2) [B15C1EE7] (AR v2)
Track 17 accurately ripped (confidence 2) [5F2B9BB9] (AR v2)
Track 18 accurately ripped (confidence 2) [9A79035D] (AR v2)
All tracks accurately ripped
End of status report
==== Log checksum 2C637CE2A98BD10E22153EB1C153B75D45DFBE7F557028361B16D7DFFA47CEA6 ====
[teatrix.ru].t18941.torrent 
Торрент: Зарегистрирован [ 2016-03-18 12:26 ] · 8C352AF16709DB8D05BB4A617009EE060925F84F

Скачать .torrent

Скачать

16 KB

Статус: проверено
Скачан: 1 раз
Размер: 394 MB
terms.php



Быстрый ответ

Имя:

      
Для отправки сообщений необходимо включить JavaScript
Показать сообщения:    

Текущее время: 11-Дек 14:56

Часовой пояс: UTC + 3


Вы можете начинать темы
Вы можете отвечать на сообщения
Вы не можете редактировать свои сообщения
Вы не можете удалять свои сообщения
Вы не можете голосовать в опросах
Вы не можете прикреплять файлы к сообщениям
Вы можете скачивать файлы