(Classical) I Solisti Italiani on Cinema (Lavagnino, Rossellini, Hermann, Donaggjo, Morricone, Vlad, Шостакович) - 2012, FLAC (image+.cue) lossless


Статистика раздачи [Обновить пиров]
Размер:  351 MB   |    Зарегистрирован:  8 месяцев 21 день   |    Скачан:  0 раз

Полного источника не было: Никогда

Личеров:  9  [  0 KB/s  ]   Подробная статистика пиров
 
   
 
 
 

[Цитировать]

I Solisti Italiani on Cinema
Жанр: Classical
Страна-производитель диска: Japan
Год издания диска: 2012
Издатель (лейбл): DENON
Номер по каталогу: COCO-73331
Дата записи: 1995
Аудиокодек: FLAC
Тип рипа: image+.cue
Битрейт аудио: lossless
Продолжительность: 76:25
Источник: собственный рип
Наличие сканов в содержимом раздачи: да

Треклист:

William Walion
Two pieces for strings from the film music "Henry V"
1. Passacaglia; Death of Falstaff
2. Touch her soft lips and part
Francesco Lavagnino
Pocket Symphony per orchestra d'archi
3. I - Allegro con sussiego
4. II - Andantino dolce ed espressivo
5. III - Vivace (in due movimenti)
Renzo Rossellini
6. La sera fiesolana per orchestra d'archi
Bernard Hermann
Psycho
7. Prelude
8. The City
9. The Swamp
10. The Murder
11. The Celler
12. Discovery
Pino Donaggjo
13. De Palma Suite
Ennio Morricone
14. Nuovo Cinema Paradiso
Roman Vlad
Ricordando le antiche melodie di "Romeo e Giulietta"
15. Entrata al ballo
16. Danza dei Lanzichcnecchi
17. Danza (alla Siciliana)
18. Gagliarda
19. Danza di Romeo e di Giulietta
Dmitri Shostakovich
Fragments from the film music

20. Youth
21. Contredanse
22. Gallop
23. Jemma's Room
24. Ophelia's Madness
25. Ophelia's Ravings
26. Cemetry
27. Hamlet by Ophelia's Coffin

Исполнители:

I Solisti Italiani
violin:
Giovanni Guglielmo - Francesco Gobetti (Venezia 1721) [solo:Shostakovich]
Giqino Maestri - Matteo Gofriller (Venezia 1706)
Fedrico Guglielmo - Luigi Lanaro (Abano 1981)
Luca Fanfoni - Lorenzo Frienani (1980)
Antonio De Secondi - Stefano Scarampella (Mantova 1905)
Carlo Lazari - Pellizzon family (Gorizia end of 18ct.)
viola:
Alfonso Ghedin - Joannes Gagliano (Nalopi 1800)
Marcello Turio - Joannes Flores Guidantus (Bologna 1710)
violoncello:
Mihai Dancila - Francesco Rugeri (18ct.)
Piero Bosna - Claude Lebet (1994)
double bass:
Augusto Salentini - Enrico Ceruti (19ct.)
harpsichord, piano:
Edoardo Farina
Eddy de Rossi - harp
Alessandro Zucchi - tamburine
Daniele Ruggieri - piccolo
Recorded: Villa Contarini, Piazzola sul Brenta, Italy, August 9-18, 1995

EAC log

Exact Audio Copy V1.0 beta 3 from 29. August 2011
EAC extraction logfile from 26. July 2014, 17:59
I Solisti Italiani / I Solisti Italiani on Cinema
Used drive : Optiarc DVD RW AD-7173A Adapter: 3 ID: 0
Read mode : Secure
Utilize accurate stream : Yes
Defeat audio cache : Yes
Make use of C2 pointers : No
Read offset correction : 48
Overread into Lead-In and Lead-Out : No
Fill up missing offset samples with silence : Yes
Delete leading and trailing silent blocks : No
Null samples used in CRC calculations : Yes
Used interface : Native Win32 interface for Win NT & 2000
Used output format : Internal WAV Routines
Sample format : 44.100 Hz; 16 Bit; Stereo
TOC of the extracted CD
Track | Start | Length | Start sector | End sector
---------------------------------------------------------
1 | 0:00.00 | 3:05.32 | 0 | 13906
2 | 3:05.32 | 1:47.18 | 13907 | 21949
3 | 4:52.50 | 2:53.20 | 21950 | 34944
4 | 7:45.70 | 3:18.62 | 34945 | 49856
5 | 11:04.57 | 2:43.23 | 49857 | 62104
6 | 13:48.05 | 7:19.10 | 62105 | 95039
7 | 21:07.15 | 1:57.42 | 95040 | 103856
8 | 23:04.57 | 1:47.33 | 103857 | 111914
9 | 24:52.15 | 2:31.50 | 111915 | 123289
10 | 27:23.65 | 1:01.20 | 123290 | 127884
11 | 28:25.10 | 1:27.25 | 127885 | 134434
12 | 29:52.35 | 0:55.72 | 134435 | 138631
13 | 30:48.32 | 9:41.70 | 138632 | 182276
14 | 40:30.27 | 5:06.38 | 182277 | 205264
15 | 45:36.65 | 1:38.62 | 205265 | 212676
16 | 47:15.52 | 2:02.03 | 212677 | 221829
17 | 49:17.55 | 0:55.67 | 221830 | 226021
18 | 50:13.47 | 1:33.43 | 226022 | 233039
19 | 51:47.15 | 3:37.40 | 233040 | 249354
20 | 55:24.55 | 1:44.72 | 249355 | 257226
21 | 57:09.52 | 1:38.03 | 257227 | 264579
22 | 58:47.55 | 2:04.00 | 264580 | 273879
23 | 60:51.55 | 3:16.45 | 273880 | 288624
24 | 64:08.25 | 3:44.27 | 288625 | 305451
25 | 67:52.52 | 3:24.00 | 305452 | 320751
26 | 71:16.52 | 1:54.35 | 320752 | 329336
27 | 73:11.12 | 3:14.48 | 329337 | 343934
Range status and errors
Selected range
Filename C:\Scanned\1\I Solisti Italiani - I Solisti Italiani on Cinema.wav
Peak level 97.7 %
Extraction speed 5.0 X
Range quality 99.9 %
Copy CRC FA70F75D
Copy OK
No errors occurred
AccurateRip summary
Track 1 accurately ripped (confidence 1) [6F37DF2E] (AR v2)
Track 2 accurately ripped (confidence 1) [EFCB164B] (AR v2)
Track 3 accurately ripped (confidence 1) [C2D84BCA] (AR v2)
Track 4 accurately ripped (confidence 1) [FF0C5282] (AR v2)
Track 5 accurately ripped (confidence 1) [57484536] (AR v2)
Track 6 accurately ripped (confidence 1) [F8FE266A] (AR v2)
Track 7 accurately ripped (confidence 1) [405E567D] (AR v2)
Track 8 accurately ripped (confidence 1) [EC79F293] (AR v2)
Track 9 accurately ripped (confidence 1) [09EA0B2F] (AR v2)
Track 10 accurately ripped (confidence 1) [9530C0E2] (AR v2)
Track 11 accurately ripped (confidence 1) [25A8A5AA] (AR v2)
Track 12 accurately ripped (confidence 1) [B26FB155] (AR v2)
Track 13 accurately ripped (confidence 1) [EDCCADB5] (AR v2)
Track 14 accurately ripped (confidence 1) [70527E60] (AR v2)
Track 15 accurately ripped (confidence 1) [72BC01FB] (AR v2)
Track 16 accurately ripped (confidence 1) [9B0A82BD] (AR v2)
Track 17 accurately ripped (confidence 1) [17AB21DB] (AR v2)
Track 18 accurately ripped (confidence 1) [CDC33B21] (AR v2)
Track 19 accurately ripped (confidence 1) [6FB21006] (AR v2)
Track 20 accurately ripped (confidence 1) [110FD00F] (AR v2)
Track 21 accurately ripped (confidence 1) [CDB3EE5A] (AR v2)
Track 22 accurately ripped (confidence 1) [F2EB26C5] (AR v2)
Track 23 accurately ripped (confidence 1) [E294B79F] (AR v2)
Track 24 accurately ripped (confidence 1) [91FEEA2D] (AR v2)
Track 25 accurately ripped (confidence 1) [C917B5C2] (AR v2)
Track 26 accurately ripped (confidence 1) [F1826067] (AR v2)
Track 27 accurately ripped (confidence 1) [A4F7CBAF] (AR v2)
All tracks accurately ripped
End of status report
==== Log checksum 987B4A52398B67331EF04DCA851CD84CC8CB30D3D0D598881C562F9036C1FE09 ====
[teatrix.ru].t18942.torrent 
Торрент: Зарегистрирован [ 2016-03-18 12:24 ] · 7F787970C8857C3919B52D6C610D8EEB92FA810C

Скачать .torrent

Скачать

15 KB

Статус: проверено
Скачан: 0 раз
Размер: 351 MB
terms.php



Быстрый ответ

Имя:

      
Для отправки сообщений необходимо включить JavaScript
Показать сообщения:    

Текущее время: 09-Дек 10:44

Часовой пояс: UTC + 3


Вы можете начинать темы
Вы можете отвечать на сообщения
Вы не можете редактировать свои сообщения
Вы не можете удалять свои сообщения
Вы не можете голосовать в опросах
Вы не можете прикреплять файлы к сообщениям
Вы можете скачивать файлы