(Classical) Johann Sebastian Bach - Mass in B minor (Edition: Breitkopf & Hartel, edited by Rifkin) - Hamilton, Osmond, Oitzinger, Hobbs, Brook; Dunedin Consort & Players, John Butt - 2CD - 2010, FLAC (image+.cue) lossless


Статистика раздачи [Обновить пиров]
Размер:  529 MB   |    Зарегистрирован:  8 месяцев 17 дней   |    Скачан:  0 раз

Полного источника не было: Никогда

Личеров:  6  [  0 KB/s  ]   Подробная статистика пиров
 
   
 
 
 

[Цитировать]

Johann Sebastian Bach - Mass in B minor (Edition: Breitkopf & Härtel, edited by Rifkin) - Hamilton, Osmond, Oitzinger, Hobbs, Brook; Dunedin Consort & Players, John Butt
Жанр: Classical
Страна-производитель диска: UK
Год издания диска: 2010
Издатель (лейбл): Linn Records
Номер по каталогу: CKD 354
Дата записи: 2009
Аудиокодек: FLAC
Тип рипа: image+.cue
Битрейт аудио: lossless
Продолжительность: 102:13
Источник: собственный рип
Наличие сканов в содержимом раздачи: да
Треклист:
Johann Sebastian Bach (1685-1750)
Mass in B minor
Edition: Breitkopf & Härtel, edited by Joshua Rifkin (2006)
CD1
[1]-[3] Kyrie
[4]-[12] Gloria
CD2
[1]-[9] Credo
[10] Sanctus
[11] Osanna
[12] Benedictus
[13] Osanna - da capo
[14] Agnus Dei
[15] Dona nobis pacem
Исполнители:
Susan Hamilton soprano
Cecilia Osmond soprano
Margot Oitzinger alto
Thomas Hobbs tenor
Matthew Brook bass
Dunedin Consort & Players
John Butt
director

Лог создания рипа: CD1

Exact Audio Copy V1.0 beta 3 from 29. August 2011
EAC extraction logfile from 21. July 2014, 0:57
Dunedin Consort & Players, John Butt / Bach - Mass in B Minor - CD1
Used drive : HL-DT-STDVDRAM GU70N Adapter: 0 ID: 0
Read mode : Secure
Utilize accurate stream : Yes
Defeat audio cache : Yes
Make use of C2 pointers : No
Read offset correction : 48
Overread into Lead-In and Lead-Out : No
Fill up missing offset samples with silence : Yes
Delete leading and trailing silent blocks : No
Null samples used in CRC calculations : Yes
Used interface : Native Win32 interface for Win NT & 2000
Used output format : User Defined Encoder
Selected bitrate : 128 kBit/s
Quality : High
Add ID3 tag : No
Command line compressor : C:\Program Files (x86)\Exact Audio Copy\Flac\flac.exe
Additional command line options : -V -8 -T "Date=%year%" -T "Genre=%genre%" %source%
TOC of the extracted CD
Track | Start | Length | Start sector | End sector
---------------------------------------------------------
1 | 0:00.00 | 9:39.08 | 0 | 43432
2 | 9:39.08 | 4:33.24 | 43433 | 63931
3 | 14:12.32 | 2:45.23 | 63932 | 76329
4 | 16:57.55 | 1:41.73 | 76330 | 83977
5 | 18:39.53 | 4:23.59 | 83978 | 103761
6 | 23:03.37 | 4:07.74 | 103762 | 122360
7 | 27:11.36 | 3:04.24 | 122361 | 136184
8 | 30:15.60 | 5:10.63 | 136185 | 159497
9 | 35:26.48 | 2:45.46 | 159498 | 171918
10 | 38:12.19 | 3:57.55 | 171919 | 189748
11 | 42:09.74 | 4:09.70 | 189749 | 208493
12 | 46:19.69 | 3:47.66 | 208494 | 225584
Range status and errors
Selected range
Filename C:\temp\Bach - Mass in B Minor - Dunedin Consort, Butt\Bach - Mass in B Minor - CD1.wav
Peak level 97.9 %
Extraction speed 2.1 X
Range quality 100.0 %
Test CRC 934D6FCD
Copy CRC 934D6FCD
Copy OK
No errors occurred
AccurateRip summary
Track 1 not present in database
Track 2 not present in database
Track 3 not present in database
Track 4 not present in database
Track 5 not present in database
Track 6 not present in database
Track 7 not present in database
Track 8 not present in database
Track 9 not present in database
Track 10 not present in database
Track 11 not present in database
Track 12 not present in database
None of the tracks are present in the AccurateRip database
End of status report
==== Log checksum D1BE39A2386283DA3FAF45772A595C88ECCBB59D4A667C81B542B11614137DAA ====

Лог создания рипа: CD2

Exact Audio Copy V1.0 beta 3 from 29. August 2011
EAC extraction logfile from 21. July 2014, 1:54
Dunedin Consort & Players, John Butt / Bach - Mass in B Minor - CD2
Used drive : HL-DT-STDVDRAM GU70N Adapter: 0 ID: 0
Read mode : Secure
Utilize accurate stream : Yes
Defeat audio cache : Yes
Make use of C2 pointers : No
Read offset correction : 48
Overread into Lead-In and Lead-Out : No
Fill up missing offset samples with silence : Yes
Delete leading and trailing silent blocks : No
Null samples used in CRC calculations : Yes
Used interface : Native Win32 interface for Win NT & 2000
Used output format : User Defined Encoder
Selected bitrate : 128 kBit/s
Quality : High
Add ID3 tag : No
Command line compressor : C:\Program Files (x86)\Exact Audio Copy\Flac\flac.exe
Additional command line options : -V -8 -T "Date=%year%" -T "Genre=%genre%" %source%
TOC of the extracted CD
Track | Start | Length | Start sector | End sector
---------------------------------------------------------
1 | 0:00.00 | 1:46.29 | 0 | 7978
2 | 1:46.29 | 1:54.30 | 7979 | 16558
3 | 3:40.59 | 4:11.32 | 16559 | 35415
4 | 7:52.16 | 2:55.24 | 35416 | 48564
5 | 10:47.40 | 3:02.56 | 48565 | 62270
6 | 13:50.21 | 4:02.30 | 62271 | 80450
7 | 17:52.51 | 5:27.43 | 80451 | 105018
8 | 23:20.19 | 3:39.72 | 105019 | 121515
9 | 27:00.16 | 2:07.25 | 121516 | 131065
10 | 29:07.41 | 4:58.34 | 131066 | 153449
11 | 34:06.00 | 2:38.35 | 153450 | 165334
12 | 36:44.35 | 4:55.14 | 165335 | 187473
13 | 41:39.49 | 2:39.46 | 187474 | 199444
14 | 44:19.20 | 4:26.24 | 199445 | 219418
15 | 48:45.44 | 3:15.62 | 219419 | 234105
Range status and errors
Selected range
Filename C:\temp\Bach - Mass in B Minor - Dunedin Consort, Butt\Bach - Mass in B Minor - CD2.wav
Peak level 98.3 %
Extraction speed 2.1 X
Range quality 100.0 %
Test CRC 6C717F8B
Copy CRC 6C717F8B
Copy OK
No errors occurred
AccurateRip summary
Track 1 not present in database
Track 2 not present in database
Track 3 not present in database
Track 4 not present in database
Track 5 not present in database
Track 6 not present in database
Track 7 not present in database
Track 8 not present in database
Track 9 not present in database
Track 10 not present in database
Track 11 not present in database
Track 12 not present in database
Track 13 not present in database
Track 14 not present in database
Track 15 not present in database
None of the tracks are present in the AccurateRip database
End of status report
==== Log checksum A66BAADB011AEB189F0D5536CB2AA0FFB01FBF2578E107979CF6C68CCF666131 ====
[teatrix.ru].t18944.torrent 
Торрент: Зарегистрирован [ 2016-03-18 12:26 ] · 31A7B1B9A2621A2DB394F43B36FE968E2230FB7B

Скачать .torrent

Скачать

22 KB

Статус: проверено
Скачан: 0 раз
Размер: 529 MB
terms.php



Быстрый ответ

Имя:

      
Для отправки сообщений необходимо включить JavaScript
Показать сообщения:    

Текущее время: 04-Дек 21:24

Часовой пояс: UTC + 3


Вы можете начинать темы
Вы можете отвечать на сообщения
Вы не можете редактировать свои сообщения
Вы не можете удалять свои сообщения
Вы не можете голосовать в опросах
Вы не можете прикреплять файлы к сообщениям
Вы можете скачивать файлы