(Oratorio) Handel - Israel in Egypt, oratorio, HWV 54 (Berchtold, Bourve, Sander, Cornelius, Mead - Orchester der Deutschen Handel-Solisten, Bramall) - 2008, APE (image+.cue) lossless


Статистика раздачи [Обновить пиров]
Размер:  513 MB   |    Зарегистрирован:  8 месяцев 23 дня   |    Скачан:  0 раз

Полного источника не было: Никогда

Личеров:  3  [  0 KB/s  ]   Подробная статистика пиров
 
   
 
 
 

[Цитировать]

Georg Frideric Handel - Israel in Egypt, Oratorio in 3 parts, HWV 54
Жанр: Oratorio
Страна-производитель диска: EU
Год издания диска: 2008
Издатель (лейбл): Brilliant Classics
Номер по каталогу: 93131
Дата записи: 2008
Аудиокодек: APE
Тип рипа: image+.cue
Битрейт аудио: lossless
Продолжительность: 01:47:57
Источник: собственный рип
Наличие сканов в содержимом раздачи: да
Треклист:

CD1

1. Part 1. No. 1. Symphony, Largo assai
2. Part 1. No. 2. Chorus. The sons of Israel mourn
3. Part 1. No. 3. Chorus. How is the mighty fall'n
4. Part 1. No. 4. Chorus. He put on righteousness
5. Part 1. No. 5. Chorus, Andante larghetto. When the ear heard him
6. Part 1. No. 6. Chorus, Adagio. How is the mighty fall'n
7. Part 1. No. 9. Chorus, Larghetto e staccato. The righteous shall be had in everlasting remembrance
8. Part 1. No. 10. Chorus, Grave. Their bodies are buried in peace
9. Part 1. No. 11. Chorus, Grave. The people will tell of their wisdom
10. Part 1. No. 12. Chorus, Larghetto. They shall receive a glorious kingdom
11. Part 1. No. 13. Chorus, Largo. The merciful goodness of the Lord
12. Part 2. Rez + No. 14. Solo and Chorus. And the children of Israel sigh'd
13. Part 2. Rez + No. 15. Chorus, Largo assai. They loathed to drink of the river
14. Part 2. No. 16. Air, Andante. Their land brought forth frogs
15. Part 2. No. 17. Chorus, Andante larghetto. He spake the word
16. Part 2. No. 18. Chorus, Allegro. He gave them hailstones for rain
17. Part 2. No. 19. Chorus, Largo. He sent a thick darkness
18. Part 2. No. 20. Chorus, a tempo giusto e staccato. He smote all the firstborn of Egypt
19. Part 2. No. 21. Chorus, Andante. But as for his people
20. Part 2. No. 23. Chorus, Grave e staccato. He rebuked the Red Sea
21. Part 2. No. 24. Chorus, Grave. And Israel saw that great work

CD1

1. Part 3. No. 25. Chorus, Introitus, a tempo giusto. Moses and the children of Israel
2. Part 3. No. 26. Duet, Larghetto. The Lord is my strength an my song
3. Part 3. No. 27. Chorus, Grave. He is my God
4. Part 3. No. 28. Duet, Andante allegro. The Lord is a man of war
5. Part 3. No. 29. Chorus, Largo. The depths have cover'd them
6. Part 3. No. 30. Chorus, Andante. Thy right hand, O Lord
7. Part 3. No. 31. Chorus. And with the blast of thy nostrils
8. Part 3. No. 32. Air, Andante. The enemy said
9. Part 3. No. 33. Air, Andante larghetto. Thou didst blow with the wind
10. Part 3. No. 34. Chorus, Grave. Who is like unto thee, O Lord, among the gods?
11. Part 3. No. 35. Duet, Larghetto. Thou in thy mercy
12. Part 3. No. 36. Chorus, Largo e staccato. The people shall hear
13. Part 3. No. 37. Air, Largo. Thou shallt bring them in
14. Part 3. No. 38. Chorus, A tempo giusto. The Lord shall reign forever and ever
15. Part 3. Rez + No. 39. Solo and Chorus, a tempo giusto. Sing ye to the Lord
Исполнители:
Georg Frideric Handel - Israel in Egypt
Oratorio in 3 parts, HWV 54
Bernhard Berchtold, Tenor
Antonia Bourvé, Soprano
Klemens Sander, Bass
Susanne Cornelius, Soprano
Mika Kares, Bass
Timothy Mead, Counter
Chamber Choir of Europe
Orchester der Deutschen Händel-Solisten
Anthony Bramall

Лог создания рипа

CD1

Exact Audio Copy V1.0 beta 3 from 29. August 2011
EAC extraction logfile from 27. July 2014, 15:00
Handel / Israel in Egypt,Bramall CD1
Used drive : TS8XDVDSTRANSCEND Adapter: 1 ID: 0
Read mode : Secure
Utilize accurate stream : Yes
Defeat audio cache : Yes
Make use of C2 pointers : No
Read offset correction : 6
Overread into Lead-In and Lead-Out : No
Fill up missing offset samples with silence : Yes
Delete leading and trailing silent blocks : No
Null samples used in CRC calculations : Yes
Used interface : Native Win32 interface for Win NT & 2000
Used output format : Monkey's Audio Lossless Encoder
Selected bitrate : High Lossless Compression
Quality : High
Add ID3 tag : No
Command line compressor : C:\Program Files (x86)\Exact Audio Copy\MAC\MAC.exe
TOC of the extracted CD
Track | Start | Length | Start sector | End sector
---------------------------------------------------------
1 | 0:00.00 | 2:28.45 | 0 | 11144
2 | 2:28.45 | 4:57.17 | 11145 | 33436
3 | 7:25.62 | 1:58.25 | 33437 | 42311
4 | 9:24.12 | 2:17.20 | 42312 | 52606
5 | 11:41.32 | 3:08.27 | 52607 | 66733
6 | 14:49.59 | 0:55.72 | 66734 | 70930
7 | 15:45.56 | 3:52.60 | 70931 | 88390
8 | 19:38.41 | 5:07.07 | 88391 | 111422
9 | 24:45.48 | 2:01.06 | 111423 | 120503
10 | 26:46.54 | 3:31.48 | 120504 | 136376
11 | 30:18.27 | 4:31.70 | 136377 | 156771
12 | 34:50.22 | 3:38.22 | 156772 | 173143
13 | 38:28.44 | 2:29.22 | 173144 | 184340
14 | 40:57.66 | 2:05.70 | 184341 | 193785
15 | 43:03.61 | 1:59.11 | 193786 | 202721
16 | 45:02.72 | 1:52.27 | 202722 | 211148
17 | 46:55.24 | 3:07.34 | 211149 | 225207
18 | 50:02.58 | 2:39.64 | 225208 | 237196
19 | 52:42.47 | 4:19.65 | 237197 | 256686
20 | 57:02.37 | 2:57.53 | 256687 | 270014
21 | 60:00.15 | 3:37.47 | 270015 | 286336
Range status and errors
Selected range
Filename D:\EAC\Handel - Israel in Egypt,Bramall CD1.wav
Peak level 94.4 %
Extraction speed 3.0 X
Range quality 100.0 %
Test CRC 55269424
Copy CRC 55269424
Copy OK
No errors occurred
AccurateRip summary
Track 1 accurately ripped (confidence 3) [2EE32270] (AR v2)
Track 2 accurately ripped (confidence 3) [2A308D96] (AR v2)
Track 3 accurately ripped (confidence 3) [A8AE77B0] (AR v2)
Track 4 accurately ripped (confidence 3) [EBEF0BAE] (AR v2)
Track 5 accurately ripped (confidence 3) [2CB64785] (AR v2)
Track 6 accurately ripped (confidence 3) [36BAFB0C] (AR v2)
Track 7 accurately ripped (confidence 3) [5C2D8E92] (AR v2)
Track 8 accurately ripped (confidence 3) [5274C0C3] (AR v2)
Track 9 accurately ripped (confidence 3) [23016673] (AR v2)
Track 10 accurately ripped (confidence 3) [EA919439] (AR v2)
Track 11 accurately ripped (confidence 3) [C8DBB887] (AR v2)
Track 12 accurately ripped (confidence 3) [5435D854] (AR v2)
Track 13 accurately ripped (confidence 3) [F3E8258B] (AR v2)
Track 14 accurately ripped (confidence 3) [12506C7F] (AR v2)
Track 15 accurately ripped (confidence 3) [542E4512] (AR v2)
Track 16 accurately ripped (confidence 3) [07E3ECD5] (AR v2)
Track 17 accurately ripped (confidence 3) [B577A43B] (AR v2)
Track 18 accurately ripped (confidence 3) [D69A59AD] (AR v2)
Track 19 accurately ripped (confidence 3) [C7AFF147] (AR v2)
Track 20 accurately ripped (confidence 3) [AE8BA4F4] (AR v2)
Track 21 accurately ripped (confidence 3) [69294A78] (AR v2)
All tracks accurately ripped
End of status report
---- CUETools DB Plugin V2.1.3
[CTDB TOCID: wXcr5X6.rZmiwmD3mw1Epk.Vejg-] found, Submit result: unrecognized or virtual drive
[72dde7c3] (14/14) Accurately ripped
==== Log checksum 3A8EABF0E9188C4A6629662AF3A3699353E0A187AB54F0C6F3380393EBBFEC32 ====

CD2

Exact Audio Copy V1.0 beta 3 from 29. August 2011
EAC extraction logfile from 27. July 2014, 14:39
Handel / Israel in Egypt,Bramall CD2
Used drive : TSSTcorpCDDVDW SE-208AB Adapter: 1 ID: 1
Read mode : Secure
Utilize accurate stream : Yes
Defeat audio cache : Yes
Make use of C2 pointers : No
Read offset correction : 6
Overread into Lead-In and Lead-Out : No
Fill up missing offset samples with silence : Yes
Delete leading and trailing silent blocks : No
Null samples used in CRC calculations : Yes
Used interface : Native Win32 interface for Win NT & 2000
Used output format : Monkey's Audio Lossless Encoder
Selected bitrate : High Lossless Compression
Quality : High
Add ID3 tag : No
Command line compressor : C:\Program Files (x86)\Exact Audio Copy\MAC\MAC.exe
TOC of the extracted CD
Track | Start | Length | Start sector | End sector
---------------------------------------------------------
1 | 0:00.00 | 3:27.42 | 0 | 15566
2 | 3:27.42 | 3:44.23 | 15567 | 32389
3 | 7:11.65 | 3:13.08 | 32390 | 46872
4 | 10:24.73 | 5:04.09 | 46873 | 69681
5 | 15:29.07 | 2:26.69 | 69682 | 80700
6 | 17:56.01 | 1:28.42 | 80701 | 87342
7 | 19:24.43 | 2:19.23 | 87343 | 97790
8 | 21:43.66 | 2:17.62 | 97791 | 108127
9 | 24:01.53 | 1:45.25 | 108128 | 116027
10 | 25:47.03 | 1:20.41 | 116028 | 122068
11 | 27:07.44 | 4:02.55 | 122069 | 140273
12 | 31:10.24 | 4:23.27 | 140274 | 160025
13 | 35:33.51 | 3:19.18 | 160026 | 174968
14 | 38:52.69 | 0:41.06 | 174969 | 178049
15 | 39:34.00 | 5:02.66 | 178050 | 200765
Range status and errors
Selected range
Filename D:\EAC\Handel - Israel in Egypt,Bramall CD2.wav
Peak level 94.4 %
Extraction speed 4.1 X
Range quality 99.9 %
Test CRC 86A2F7A6
Copy CRC 86A2F7A6
Copy OK
No errors occurred
AccurateRip summary
Track 1 accurately ripped (confidence 4) [7C476E53] (AR v2)
Track 2 accurately ripped (confidence 4) [FC3B6D84] (AR v2)
Track 3 accurately ripped (confidence 4) [DA1B2BD0] (AR v2)
Track 4 accurately ripped (confidence 4) [33A63AD6] (AR v2)
Track 5 accurately ripped (confidence 4) [FF510722] (AR v2)
Track 6 accurately ripped (confidence 4) [ED0EAE8D] (AR v2)
Track 7 accurately ripped (confidence 4) [F850FF55] (AR v2)
Track 8 accurately ripped (confidence 4) [FF7CD114] (AR v2)
Track 9 accurately ripped (confidence 4) [45E5306D] (AR v2)
Track 10 accurately ripped (confidence 4) [85F251A1] (AR v2)
Track 11 accurately ripped (confidence 4) [2D22788B] (AR v2)
Track 12 accurately ripped (confidence 4) [CF1962CF] (AR v2)
Track 13 accurately ripped (confidence 4) [F87B89D8] (AR v2)
Track 14 accurately ripped (confidence 4) [BEFA4720] (AR v2)
Track 15 accurately ripped (confidence 4) [F5A845A6] (AR v2)
All tracks accurately ripped
End of status report
---- CUETools DB Plugin V2.1.3
[CTDB TOCID: yrlexvFXhFWBO2_z5nOwkJGZr_I-] found, Submit result: yrlexvFXhFWBO2_z5nOwkJGZr_I- has been confirmed
[285381b4] (7/7) Accurately ripped
==== Log checksum 2784C341FE7BF142A793AAC79FFE42F2C203392445DAFADC9CE40BE1D073ACF5 ====

Содержание индексной карты (.CUE)

CD1

REM GENRE Oratorio
REM DATE 2008
REM DISCID 180EE915
REM COMMENT "ExactAudioCopy v1.0b3"
PERFORMER "Handel"
TITLE "Israel in Egypt,Bramall CD1"
FILE "Handel - Israel in Egypt,Bramall CD1.ape" WAVE
TRACK 01 AUDIO
TITLE "PART I The Lamentation of the Israelites for the Death of Joseph Nr. 1 Sympho..."
PERFORMER "Handel"
FLAGS DCP
INDEX 01 00:00:00
TRACK 02 AUDIO
TITLE "Nr. 2 Chorus, Larghetto e staccato 'The sons of Israel mourn'"
PERFORMER "Handel"
FLAGS DCP
INDEX 01 02:28:45
TRACK 03 AUDIO
TITLE "Nr. 3 Chorus, 'How is the mighty fall'n'"
PERFORMER "Handel"
FLAGS DCP
INDEX 01 07:25:62
TRACK 04 AUDIO
TITLE "Nr. 4 Chorus, 'He put on righteousness'"
PERFORMER "Handel"
FLAGS DCP
INDEX 01 09:24:12
TRACK 05 AUDIO
TITLE "Nr. 5 Chorus (Soli), Andante larghetto 'When the ear heard him'"
PERFORMER "Handel"
FLAGS DCP
INDEX 01 11:41:32
TRACK 06 AUDIO
TITLE "Nr. 6 Chorus, Adagio 'How is the mighty fall'n'"
PERFORMER "Handel"
FLAGS DCP
INDEX 01 14:49:59
TRACK 07 AUDIO
TITLE "Nr. 9 Chorus (Soli), Larghetto e staccato 'The righteous shall be had in ever..."
PERFORMER "Handel"
FLAGS DCP
INDEX 01 15:45:56
TRACK 08 AUDIO
TITLE "Nr. 10 Chorus, Grave 'Their bodies are buried in peace'"
PERFORMER "Handel"
FLAGS DCP
INDEX 01 19:38:41
TRACK 09 AUDIO
TITLE "Nr. 11 Chorus, Grave 'The people will tell of their wisdom'"
PERFORMER "Handel"
FLAGS DCP
INDEX 01 24:45:48
TRACK 10 AUDIO
TITLE "Nr. 12 Chorus (Soli), Larghetto 'They shall receive a glorious kingdom'"
PERFORMER "Handel"
FLAGS DCP
INDEX 01 26:46:54
TRACK 11 AUDIO
TITLE "Nr. 13 Chorus, Largo 'The merciful goodness of the Lord'"
PERFORMER "Handel"
FLAGS DCP
INDEX 01 30:18:27
TRACK 12 AUDIO
TITLE "PART II Exodus Rez + Nr. 14 Solo and Chorus 'And the children of Israel sigh'd'"
PERFORMER "Handel"
FLAGS DCP
INDEX 01 34:50:22
TRACK 13 AUDIO
TITLE "Rez + Nr. 15 Chorus, Largo assai 'They loathed to drink of the river'"
PERFORMER "Handel"
FLAGS DCP
INDEX 01 38:28:44
TRACK 14 AUDIO
TITLE "Nr. 16 Air, Andante 'Their land brought forth frogs'"
PERFORMER "Handel"
FLAGS DCP
INDEX 01 40:57:66
TRACK 15 AUDIO
TITLE "Nr. 17 Chorus, Andante larghetto 'He spake the word'"
PERFORMER "Handel"
FLAGS DCP
INDEX 01 43:03:61
TRACK 16 AUDIO
TITLE "Nr. 18 Chorus, Allegro 'He gave them hailstones for rain'"
PERFORMER "Handel"
FLAGS DCP
INDEX 01 45:02:72
TRACK 17 AUDIO
TITLE "Nr. 19 Chorus, Largo 'He sent a thick darkness'"
PERFORMER "Handel"
FLAGS DCP
INDEX 01 46:55:24
TRACK 18 AUDIO
TITLE "Nr. 20 Chorus, a tempo giusto e staccato 'He smote all the firstborn of Egypt'"
PERFORMER "Handel"
FLAGS DCP
INDEX 01 50:02:58
TRACK 19 AUDIO
TITLE "Nr. 21 Chorus, Andante 'But as for his people"
PERFORMER "Handel"
FLAGS DCP
INDEX 01 52:42:47
TRACK 20 AUDIO
TITLE "Nr. 23 Chorus, Grave e staccato 'He rebuked the Red Sea'"
PERFORMER "Handel"
FLAGS DCP
INDEX 01 57:02:37
TRACK 21 AUDIO
TITLE "Nr. 24 Chorus, Grave 'And Israel saw that great work'"
PERFORMER "Handel"
FLAGS DCP
INDEX 01 60:00:15

CD2

REM GENRE Oratorio
REM DATE 2008
REM DISCID C50A740F
REM COMMENT "ExactAudioCopy v1.0b3"
PERFORMER "Handel"
TITLE "Israel in Egypt,Bramall CD2"
FILE "Handel - Israel in Egypt,Bramall CD2.ape" WAVE
TRACK 01 AUDIO
TITLE "PART III Moses' Song Nr. 25 Chorus, Introitus, a tempo giusto 'Moses and the ..."
PERFORMER "Handel"
FLAGS DCP
INDEX 01 00:00:00
TRACK 02 AUDIO
TITLE "Nr. 26 Duet, Larghetto 'The Lord is my strenght and my song'"
PERFORMER "Handel"
FLAGS DCP
INDEX 01 03:27:42
TRACK 03 AUDIO
TITLE "Nr. 27 Chorus, Grave 'He is my God'"
PERFORMER "Handel"
FLAGS DCP
INDEX 01 07:11:65
TRACK 04 AUDIO
TITLE "Nr. 28 Duet, Andante allegro 'The Lord is a man of war'"
PERFORMER "Handel"
FLAGS DCP
INDEX 01 10:24:73
TRACK 05 AUDIO
TITLE "Nr. 29 Chorus, Largo 'The depths have cover'd them'"
PERFORMER "Handel"
FLAGS DCP
INDEX 01 15:29:07
TRACK 06 AUDIO
TITLE "Nr. 30 Chorus, Andante 'Tha right hand, O Lord'"
PERFORMER "Handel"
FLAGS DCP
INDEX 01 17:56:01
TRACK 07 AUDIO
TITLE "Nr. 31 Chorus, 'And with the blast of thy nostrils'"
PERFORMER "Handel"
FLAGS DCP
INDEX 01 19:24:43
TRACK 08 AUDIO
TITLE "Nr. 32 Air, Andante 'The enemy said'"
PERFORMER "Handel"
FLAGS DCP
INDEX 01 21:43:66
TRACK 09 AUDIO
TITLE "Nr. 33 Air, Andante larghetto 'Thou didst blow with the wind'"
PERFORMER "Handel"
FLAGS DCP
INDEX 01 24:01:53
TRACK 10 AUDIO
TITLE "Nr. 34 Chorus, Grave 'Who is like unto thee, O Lord, among the gods?'"
PERFORMER "Handel"
FLAGS DCP
INDEX 01 25:47:03
TRACK 11 AUDIO
TITLE "Nr. 35 Duet, Larghetto 'Thou in thy mercy'"
PERFORMER "Handel"
FLAGS DCP
INDEX 01 27:07:44
TRACK 12 AUDIO
TITLE "Nr. 36 Chorus, Largo e staccato 'The people shall hear'"
PERFORMER "Handel"
FLAGS DCP
INDEX 01 31:10:24
TRACK 13 AUDIO
TITLE "Nr. 37 Air. Largo 'Thou shalt bring them in'"
PERFORMER "Handel"
FLAGS DCP
INDEX 01 35:33:51
TRACK 14 AUDIO
TITLE "Nr. 38 Chorus, A tempo giusto 'The Lord shall reign forever and ever'"
PERFORMER "Handel"
FLAGS DCP
INDEX 01 38:52:69
TRACK 15 AUDIO
TITLE "Rez + Nr. 39 Solo and Chorus, a tempo giusto 'Sing ye to the Lord"
PERFORMER "Handel"
FLAGS DCP
INDEX 01 39:34:00
Наслаждайтесь!!
[teatrix.ru].t18945.torrent 
Торрент: Зарегистрирован [ 2016-03-18 12:28 ] · E2C500A12FAB7AC6AF46EB0F61152E98178C27EE

Скачать .torrent

Скачать

11 KB

Статус: проверено
Скачан: 0 раз
Размер: 513 MB
terms.php



Быстрый ответ

Имя:

      
Для отправки сообщений необходимо включить JavaScript
Показать сообщения:    

Текущее время: 10-Дек 17:48

Часовой пояс: UTC + 3


Вы можете начинать темы
Вы можете отвечать на сообщения
Вы не можете редактировать свои сообщения
Вы не можете удалять свои сообщения
Вы не можете голосовать в опросах
Вы не можете прикреплять файлы к сообщениям
Вы можете скачивать файлы