(Classical / Romanticism) Johannes Brahms (1833-1897) Piano Concerto No.1 D minor, Intermezzo op. 119,1 - Hardy Rittner, Werner Ehrhardt - 2011, FLAC (image+.cue) lossless


Статистика раздачи [Обновить пиров]
Размер:  186 MB   |    Зарегистрирован:  8 месяцев 21 день   |    Скачан:  0 раз

Полного источника не было: Никогда

Личеров:  5  [  0 KB/s  ]   Подробная статистика пиров
 
   
 
 
 

[Цитировать]

Johannes BRAHMS (1833-1897)
Piano Concerto No.1 D minor
Жанр: Classical / Romanticism
Страна-производитель диска: Germany
Год издания диска: 2011
Издатель (лейбл): MDG
Номер по каталогу: MDG 904 1699-6
Дата записи: 2011
Аудиокодек: FLAC
Тип рипа: image+.cue
Битрейт аудио: lossless
Продолжительность: 50:39
Источник: собственный рип
Треклист:
Concerto for Piano and Orchestra No.1 op.15 d-Moll
1. Maestoso
2. Adagio
3. Rondo. Allegro non troppo
4. Intermezzo op. 119,1

Исполнители:
Hardy Rittner, Erard Piano (1854)
I'arte del mondo
Werner Ehrhardt, conductor

First recording on period instruments
Concert 11./12.02.2011 (Bayer Kulturhaus Leverkusen)

EAC log

Exact Audio Copy V1.0 beta 3 from 29. August 2011
EAC extraction logfile from 30. July 2014, 16:20
Johannes Brahms / Piano Concerto No. 1 D Minor
Used drive : Optiarc DVD RW AD-7173A Adapter: 3 ID: 0
Read mode : Secure
Utilize accurate stream : Yes
Defeat audio cache : Yes
Make use of C2 pointers : No
Read offset correction : 48
Overread into Lead-In and Lead-Out : No
Fill up missing offset samples with silence : Yesa
Delete leading and trailing silent blocks : No
Null samples used in CRC calculations : Yes
Used interface : Native Win32 interface for Win NT & 2000
Used output format : Internal WAV Routines
Sample format : 44.100 Hz; 16 Bit; Stereo
TOC of the extracted CD
Track | Start | Length | Start sector | End sector
---------------------------------------------------------
1 | 0:00.00 | 22:18.19 | 0 | 100368
2 | 22:18.19 | 12:17.14 | 100369 | 155657
3 | 34:35.33 | 12:15.73 | 155658 | 210855
4 | 46:51.31 | 3:46.02 | 210856 | 227807
Range status and errors
Selected range
Filename C:\Scanned\1\Johannes Brahms - Piano Concerto No. 1 D Minor.wav
Peak level 99.3 %
Extraction speed 4.7 X
Range quality 99.9 %
Copy CRC F68B3165
Copy OK
No errors occurred
AccurateRip summary
Track 1 accurately ripped (confidence 7) [91946DCC] (AR v2)
Track 2 accurately ripped (confidence 7) [2DC94D4D] (AR v2)
Track 3 accurately ripped (confidence 7) [FB3B0518] (AR v2)
Track 4 accurately ripped (confidence 6) [015F5FB3] (AR v2)
All tracks accurately ripped
End of status report
==== Log checksum 13FDA029447027D678A4446E7FF3A9265A773B424A47EFC97D0025D4D7035F7D ====
[teatrix.ru].t18946.torrent 
Торрент: Зарегистрирован [ 2016-03-18 12:26 ] · E4064281BA59180B1F2A6968F7254F5342B85A59

Скачать .torrent

Скачать

15 KB

Статус: проверено
Скачан: 0 раз
Размер: 186 MB
terms.php



Быстрый ответ

Имя:

      
Для отправки сообщений необходимо включить JavaScript
Показать сообщения:    

Текущее время: 08-Дек 19:11

Часовой пояс: UTC + 3


Вы можете начинать темы
Вы можете отвечать на сообщения
Вы не можете редактировать свои сообщения
Вы не можете удалять свои сообщения
Вы не можете голосовать в опросах
Вы не можете прикреплять файлы к сообщениям
Вы можете скачивать файлы