(Classical) Чайковский – «Воспоминание о Флоренции»; Аренский – Струнный квартет № 2 (оригинальная версия) / Tchaikovsky – «Souvenir de Florence»; Arensky – String Quartet No. 2 (The Raphael Ensemble) - 1993, FLAC (image+.cue) lossless


 

[Цитировать]

Чайковский – «Воспоминание о Флоренции»; Аренский – Струнный квартет № 2 (оригинальная версия) / Tchaikovsky – «Souvenir de Florence»; Arensky – String Quartet No. 2 (The Raphael Ensemble: Marwood, Osostowicz, Boulton, Boyd, Hess, Stirling)
Жанр: Classical
Страна-производитель диска: Англия
Год издания диска: 1993
Издатель (лейбл): Helios (Hyperion)
Номер по каталогу: CDH55426 (CDA66648)
Дата записи: 21 — 23 февраля 1993 г., Бристоль.
Аудиокодек: FLAC
Тип рипа: image+.cue
Битрейт аудио: lossless
Продолжительность: 01:00:40
Источник: odeonmusic
Наличие сканов в содержимом раздачи: да
Треклист:
Петр Ильич Чайковский (1840 — 1893).
«Воспоминание о Флоренции», струнный секстет d-moll, op. 70 (1890; 1891 — 1892).
01. I. Allegro con spirito [10:27].
02. II. Adagio cantabile e con moto. — Moderato. — Tempo I [09:59].
03. III. Allegretto moderato. — L'istesso tempo. — [Tempo I] [06:24].
04. IV. Allegro vivace [07:26].
Антон (Антоний) Степанович Аренский (1861 — 1906).
Струнный квартет № 2 a-moll для скрипки, альта и двух виолончелей, op. 35 (1894).
05. I. Moderato [10:11].
06. II. Вариации на тему Чайковского [12:08].
(06.) Тема. Moderato. —
(07.) — Вариация I. Un poco più mosso. —
(08.) — Вариация II. Allegro non troppo. —
(09.) — Вариация III. Andantino tranquillo. —
(10.) — Вариация IV. Vivace. —
(11.) — Вариация V. Andante. —
(12.) — Вариация VI. Allegro con spirito. —
(13.) — Вариация VII. Andante con moto. —
(14.) — Кода. Moderato. — Poco più mosso. — Moderato.
07. III. Finale. Andante sostenuto. — Allegro moderato [04:08].
Исполнители:
The Raphael Ensemble:
Anthony Marwood (скрипка, 1 — 7),
Krysia Osostowicz (скрипка, 1 — 4),
Timothy Boulton (альт, 1 — 4),
James Boyd (альт, 1 — 7),
Andrea Hess (виолончель),
Michael Stirling (виолончель).

Лог создания рипа

Exact Audio Copy V1.0 beta 3 from 29. August 2011
EAC extraction logfile from 18. April 2013, 18:56
Raphael Ensemble / Tchaikovsky - Souvenir de Florence; Arensky – Quartet - The Raphael Ensemble
Used drive : TSSTcorpCDDVDW SH-222BB Adapter: 2 ID: 1
Read mode : Secure
Utilize accurate stream : Yes
Defeat audio cache : Yes
Make use of C2 pointers : No
Read offset correction : 6
Overread into Lead-In and Lead-Out : No
Fill up missing offset samples with silence : Yes
Delete leading and trailing silent blocks : No
Null samples used in CRC calculations : Yes
Used interface : Native Win32 interface for Win NT & 2000
Used output format : User Defined Encoder
Selected bitrate : 1024 kBit/s
Quality : High
Add ID3 tag : No
Command line compressor : C:\Program Files\Exact Audio Copy\Flac\flac.exe
Additional command line options : -8 -V -T "TITLE=%title%" -T "ARTIST=%artist%" -T "ALBUMARTIST=%albumartist%" -T "ALBUM=%albumtitle%" -T "DATE=%year%" -T "TRACKNUMBER=%tracknr%" -T "TRACKTOTAL=%numtracks%" -T "GENRE=%genre%" -T "COMMENT=%comment%" -T "PERFORMER=%albuminterpret%" -T "COMPOSER=%composer%" %source% -o %dest%
TOC of the extracted CD
Track | Start | Length | Start sector | End sector
---------------------------------------------------------
1 | 0:00.00 | 10:27.00 | 0 | 47024
2 | 10:27.00 | 9:59.42 | 47025 | 91991
3 | 20:26.42 | 6:24.30 | 91992 | 120821
4 | 26:50.72 | 7:26.03 | 120822 | 154274
5 | 34:17.00 | 10:11.22 | 154275 | 200121
6 | 44:28.22 | 12:08.68 | 200122 | 254789
7 | 56:37.15 | 4:08.60 | 254790 | 273449
Range status and errors
Selected range
Filename G:\Ripped general\[1888] Tchaikovsky – Souvenir de Florence; Arensky – Quartet – The Raphael Ensemble\Tchaikovsky - Souvenir de Florence; Arensky – Quartet - The Raphael Ensemble.wav
Peak level 100.0 %
Extraction speed 7.2 X
Range quality 99.9 %
Test CRC C1000ABB
Copy CRC C1000ABB
Copy OK
No errors occurred
AccurateRip summary
Track 1 accurately ripped (confidence 2) [9BC7148F] (AR v1)
Track 2 accurately ripped (confidence 2) [2A2E6284] (AR v1)
Track 3 accurately ripped (confidence 2) [C04B6335] (AR v1)
Track 4 cannot be verified as accurate (confidence 2) [68D6CA58], AccurateRip returned [FE6DB359] (AR v2)
Track 5 accurately ripped (confidence 2) [771B2992] (AR v1)
Track 6 accurately ripped (confidence 2) [BF83F4B4] (AR v1)
Track 7 cannot be verified as accurate (confidence 2) [D129814E], AccurateRip returned [8C80132C] (AR v2)
5 track(s) accurately ripped
2 track(s) could not be verified as accurate
Some tracks could not be verified as accurate
End of status report

Содержание индексной карты (.CUE)

REM GENRE Classical
REM DATE 1993
REM DISCID 610E3E07
REM COMMENT "ExactAudioCopy v1.0b3"
PERFORMER "The Raphael Ensemble"
TITLE "Tchaikovsky – Souvenir de Florence; Arensky – String Quartet No. 2 (The Raphael Ensemble)"
FILE "Tchaikovsky – Souvenir de Florence; Arensky – String Quartet No. 2 (The Raphael Ensemble).flac" WAVE
TRACK 01 AUDIO
TITLE "Tchaikovsky - String Sextet in D minor 'Souvenir de Florence', Op. 70 - I. Allegro con spirito"
PERFORMER "The Raphael Ensemble"
INDEX 01 00:00:00
TRACK 02 AUDIO
TITLE "Tchaikovsky - String Sextet in D minor 'Souvenir de Florence', Op. 70 - II. Adagio cantabile e con moto"
PERFORMER "The Raphael Ensemble"
INDEX 01 10:27:00
TRACK 03 AUDIO
TITLE "Tchaikovsky - String Sextet in D minor 'Souvenir de Florence', Op. 70 - III. Allegretto moderato"
PERFORMER "The Raphael Ensemble"
INDEX 01 20:26:42
TRACK 04 AUDIO
TITLE "Tchaikovsky - String Sextet in D minor 'Souvenir de Florence', Op. 70 - IV. Allegro vivace"
PERFORMER "The Raphael Ensemble"
INDEX 01 26:50:72
TRACK 05 AUDIO
TITLE "Arensky - String quartet No. 2 in A minor, Op. 35 - I. Moderato"
PERFORMER "The Raphael Ensemble"
INDEX 00 34:09:00
INDEX 01 34:17:00
TRACK 06 AUDIO
TITLE "Arensky - String quartet No. 2 in A minor, Op. 35 - II. Variations on a theme of Tchaikovsky"
PERFORMER "The Raphael Ensemble"
INDEX 01 44:28:22
TRACK 07 AUDIO
TITLE "Arensky - String quartet No. 2 in A minor, Op. 35 - III. Finale"
PERFORMER "The Raphael Ensemble"
INDEX 01 56:37:15

Вариант индексной карты (.CUE) с разделением Вариаций на тему Чайковского на отдельные треки

REM GENRE Classical
REM DATE 1993
REM DISCID 610E3E07
REM COMMENT "ExactAudioCopy v1.0b3"
PERFORMER "The Raphael Ensemble"
TITLE "Tchaikovsky – Souvenir de Florence; Arensky – String Quartet No. 2 (The Raphael Ensemble)"
FILE "Tchaikovsky – Souvenir de Florence; Arensky – String Quartet No. 2 (The Raphael Ensemble).flac" WAVE
TRACK 01 AUDIO
TITLE "Tchaikovsky - String Sextet in D minor 'Souvenir de Florence', Op. 70 - I. Allegro con spirito"
PERFORMER "The Raphael Ensemble"
INDEX 01 00:00:00
TRACK 02 AUDIO
TITLE "Tchaikovsky - String Sextet in D minor 'Souvenir de Florence', Op. 70 - II. Adagio cantabile e con moto"
PERFORMER "The Raphael Ensemble"
INDEX 01 10:27:00
TRACK 03 AUDIO
TITLE "Tchaikovsky - String Sextet in D minor 'Souvenir de Florence', Op. 70 - III. Allegretto moderato"
PERFORMER "The Raphael Ensemble"
INDEX 01 20:26:42
TRACK 04 AUDIO
TITLE "Tchaikovsky - String Sextet in D minor 'Souvenir de Florence', Op. 70 - IV. Allegro vivace"
PERFORMER "The Raphael Ensemble"
INDEX 01 26:50:72
TRACK 05 AUDIO
TITLE "Arensky - String quartet No. 2 in A minor, Op. 35 - I. Moderato"
PERFORMER "The Raphael Ensemble"
INDEX 00 34:07:27
INDEX 01 34:17:00
TRACK 06 AUDIO
TITLE "Arensky - String quartet No. 2 in A minor, Op. 35 - II. Variations on a theme of Tchaikovsky - Tema -"
PERFORMER "The Raphael Ensemble"
INDEX 01 44:28:22
TRACK 07 AUDIO
TITLE "Arensky - String quartet No. 2 in A minor, Op. 35 - II. Variations on a theme of Tchaikovsky - Var. I -"
PERFORMER "The Raphael Ensemble"
INDEX 01 45:28:61
TRACK 08 AUDIO
TITLE "Arensky - String quartet No. 2 in A minor, Op. 35 - II. Variations on a theme of Tchaikovsky - Var. II -"
PERFORMER "The Raphael Ensemble"
INDEX 01 46:48:16
TRACK 09 AUDIO
TITLE "Arensky - String quartet No. 2 in A minor, Op. 35 - II. Variations on a theme of Tchaikovsky - Var. IIII -"
PERFORMER "The Raphael Ensemble"
INDEX 01 47:51:54
TRACK 10 AUDIO
TITLE "Arensky - String quartet No. 2 in A minor, Op. 35 - II. Variations on a theme of Tchaikovsky - Var. IV -"
PERFORMER "The Raphael Ensemble"
INDEX 01 49:04:15
TRACK 11 AUDIO
TITLE "Arensky - String quartet No. 2 in A minor, Op. 35 - II. Variations on a theme of Tchaikovsky - Var. V -"
PERFORMER "The Raphael Ensemble"
INDEX 01 50:36:28
TRACK 12 AUDIO
TITLE "Arensky - String quartet No. 2 in A minor, Op. 35 - II. Variations on a theme of Tchaikovsky - Var. VI -"
PERFORMER "The Raphael Ensemble"
INDEX 01 52:31:28
TRACK 13 AUDIO
TITLE "Arensky - String quartet No. 2 in A minor, Op. 35 - II. Variations on a theme of Tchaikovsky - Var. VII -"
PERFORMER "The Raphael Ensemble"
INDEX 01 53:45:25
TRACK 14 AUDIO
TITLE "Arensky - String quartet No. 2 in A minor, Op. 35 - II. Variations on a theme of Tchaikovsky - Coda"
PERFORMER "The Raphael Ensemble"
INDEX 01 54:51:42
TRACK 15 AUDIO
TITLE "Arensky - String quartet No. 2 in A minor, Op. 35 - III. Finale"
PERFORMER "The Raphael Ensemble"
INDEX 01 56:37:15



Показать сообщения:    

Текущее время: 08-Дек 03:09

Часовой пояс: UTC + 3


Вы не можете начинать темы
Вы не можете отвечать на сообщения
Вы не можете редактировать свои сообщения
Вы не можете удалять свои сообщения
Вы не можете голосовать в опросах
Вы не можете прикреплять файлы к сообщениям
Вы не можете скачивать файлы