(Classical) Johann Nepomuk Hummel - String Quartets Op. 30 (Delme Quartet) - 1992/2005, FLAC (tracks+.cue) lossless


 

[Цитировать]

Johann Nepomuk Hummel - String Quartets Op. 30 (Delmé Quartet)
Жанр: Classical
Страна-производитель диска: UK
Год издания диска: 1992/2005
Издатель (лейбл): Helios [Hyperion]
Дата записи: 1991
Аудиокодек: FLAC
Тип рипа: tracks+.cue
Битрейт аудио: lossless
Продолжительность: 1h 17m 55s
Источник: собственный рип
Наличие сканов в содержимом раздачи: да
Треклист:
[1]-[4] String Quartet in C major, Op. 30 no. 1
[5]-[8] String Quartet in G major, Op. 30 no. 2
[9]-[12] String Quartet in E-flat major, Op. 30 no. 3
Исполнители:
The Delmé Quartet

Лог создания рипа

X Lossless Decoder version 20140504 (147.0)
XLD extraction logfile from 2014-07-31 10:56:18 +1200
Johann Nepomuk Hummel / String Quartets Opus 30 nos. 1-3 - Delmé String Quartet
Used drive : MATSHITA DVD-R UJ-8A8 (revision HB14)
Media type : Pressed CD
Ripper mode : XLD Secure Ripper
Disable audio cache : OK for the drive with a cache less than 1375KiB
Make use of C2 pointers : NO
Read offset correction : 102
Max retry count : 20
Gap status : Analyzed, Appended
TOC of the extracted CD
Track | Start | Length | Start sector | End sector
---------------------------------------------------------
1 | 00:00:00 | 07:53:52 | 0 | 35526
2 | 07:53:52 | 03:04:33 | 35527 | 49359
3 | 10:58:10 | 08:45:50 | 49360 | 88784
4 | 19:43:60 | 05:46:00 | 88785 | 114734
5 | 25:29:60 | 06:30:72 | 114735 | 144056
6 | 32:00:57 | 06:59:00 | 144057 | 175481
7 | 38:59:57 | 07:13:03 | 175482 | 207959
8 | 46:12:60 | 04:51:70 | 207960 | 229854
9 | 51:04:55 | 07:05:00 | 229855 | 261729
10 | 58:09:55 | 07:51:00 | 261730 | 297054
11 | 66:00:55 | 05:38:42 | 297055 | 322446
12 | 71:39:22 | 06:15:73 | 322447 | 350644
List of alternate offset correction values
# | Absolute | Relative | Confidence
------------------------------------------
1 | 766 | 664 | 5
2 | -1605 | -1707 | 2
AccurateRip Summary (DiscID: 0022c106-0144cb3f-9f12430c)
Track 01 : OK (v1+v2, confidence 9/16)
Track 02 : OK (v1+v2, confidence 9/16)
Track 03 : OK (v1+v2, confidence 9/15)
Track 04 : OK (v1+v2, confidence 9/16)
Track 05 : OK (v1+v2, confidence 9/16)
Track 06 : OK (v1+v2, confidence 9/16)
Track 07 : OK (v1+v2, confidence 9/16)
Track 08 : OK (v1+v2, confidence 9/16)
Track 09 : OK (v1+v2, confidence 9/16)
Track 10 : OK (v1+v2, confidence 9/16)
Track 11 : OK (v1+v2, confidence 9/16)
Track 12 : OK (v1+v2, confidence 9/14)
->All tracks accurately ripped.
All Tracks
Statistics
Read error : 0
Jitter error (maybe fixed) : 0
Retry sector count : 0
Damaged sector count : 0
Track 01
Filename : /Volumes/LaCie/rips/Hummel - String Quartets/01-01 - Johann Nepomuk Hummel - String quartet in C, op. 30 no. 1 - I Adagio e mesto - Allegro ma non troppo.flac
Pre-gap length : 00:02:00
CRC32 hash : A2E21077
CRC32 hash (skip zero) : ECE2D1AC
AccurateRip v1 signature : 73635BA3
AccurateRip v2 signature : DABAF32A
->Accurately ripped (v1+v2, confidence 3+6/16)
Statistics
Read error : 0
Jitter error (maybe fixed) : 0
Retry sector count : 0
Damaged sector count : 0
Track 02
Filename : /Volumes/LaCie/rips/Hummel - String Quartets/01-02 - Johann Nepomuk Hummel - String quartet in C, op. 30 no. 1 - II Allegro assai.flac
Pre-gap length : 00:01:72
CRC32 hash : 2394759B
CRC32 hash (skip zero) : 9C420268
AccurateRip v1 signature : 02714482
AccurateRip v2 signature : EC914A60
->Accurately ripped (v1+v2, confidence 3+6/16)
Statistics
Read error : 0
Jitter error (maybe fixed) : 0
Retry sector count : 0
Damaged sector count : 0
Track 03
Filename : /Volumes/LaCie/rips/Hummel - String Quartets/01-03 - Johann Nepomuk Hummel - String quartet in C, op. 30 no. 1 - III Adagio e cantabile.flac
Pre-gap length : 00:03:28
CRC32 hash : F6CB950B
CRC32 hash (skip zero) : 20DF9579
AccurateRip v1 signature : 7652F7E6
AccurateRip v2 signature : DC5A0256
->Accurately ripped (v1+v2, confidence 3+6/15)
Statistics
Read error : 0
Jitter error (maybe fixed) : 0
Retry sector count : 0
Damaged sector count : 0
Track 04
Filename : /Volumes/LaCie/rips/Hummel - String Quartets/01-04 - Johann Nepomuk Hummel - String quartet in C, op. 30 no. 1 - IV Allegro vivace.flac
Pre-gap length : 00:03:50
CRC32 hash : C54F0819
CRC32 hash (skip zero) : B5EC1CB6
AccurateRip v1 signature : 183B62EB
AccurateRip v2 signature : 00F13263
->Accurately ripped (v1+v2, confidence 3+6/16)
Statistics
Read error : 0
Jitter error (maybe fixed) : 0
Retry sector count : 0
Damaged sector count : 0
Track 05
Filename : /Volumes/LaCie/rips/Hummel - String Quartets/01-05 - Johann Nepomuk Hummel - String Quartet in G, op. 30 no. 2 - I Allegro con brio.flac
Pre-gap length : 00:09:03
CRC32 hash : 3800AEB7
CRC32 hash (skip zero) : CFEA32CF
AccurateRip v1 signature : 1112FEF4
AccurateRip v2 signature : E6469F17
->Accurately ripped (v1+v2, confidence 3+6/16)
Statistics
Read error : 0
Jitter error (maybe fixed) : 0
Retry sector count : 0
Damaged sector count : 0
Track 06
Filename : /Volumes/LaCie/rips/Hummel - String Quartets/01-06 - Johann Nepomuk Hummel - String Quartet in G, op. 30 no. 2 - II Andante grazioso.flac
Pre-gap length : 00:03:02
CRC32 hash : A2AFBFEE
CRC32 hash (skip zero) : 066A9D47
AccurateRip v1 signature : B2F6EAFF
AccurateRip v2 signature : 769753DD
->Accurately ripped (v1+v2, confidence 3+6/16)
Statistics
Read error : 0
Jitter error (maybe fixed) : 0
Retry sector count : 0
Damaged sector count : 0
Track 07
Filename : /Volumes/LaCie/rips/Hummel - String Quartets/01-07 - Johann Nepomuk Hummel - String Quartet in G, op. 30 no. 2 - III Menuetto: Allegro con fuoco.flac
Pre-gap length : 00:04:70
CRC32 hash : 0A8AB2F8
CRC32 hash (skip zero) : 060EA400
AccurateRip v1 signature : 1C55C628
AccurateRip v2 signature : 206DC808
->Accurately ripped (v1+v2, confidence 3+6/16)
Statistics
Read error : 0
Jitter error (maybe fixed) : 0
Retry sector count : 0
Damaged sector count : 0
Track 08
Filename : /Volumes/LaCie/rips/Hummel - String Quartets/01-08 - Johann Nepomuk Hummel - String Quartet in G, op. 30 no. 2 - IV Finale: Vivace.flac
Pre-gap length : 00:02:25
CRC32 hash : 041F073C
CRC32 hash (skip zero) : ED4C27B3
AccurateRip v1 signature : 958E8E49
AccurateRip v2 signature : 965F6E65
->Accurately ripped (v1+v2, confidence 3+6/16)
Statistics
Read error : 0
Jitter error (maybe fixed) : 0
Retry sector count : 0
Damaged sector count : 0
Track 09
Filename : /Volumes/LaCie/rips/Hummel - String Quartets/01-09 - Johann Nepomuk Hummel - String Quartet in E flat, op. 30 no. 3 - I Allegro con spirito.flac
Pre-gap length : 00:09:40
CRC32 hash : 81720623
CRC32 hash (skip zero) : 5D656E30
AccurateRip v1 signature : 1A550357
AccurateRip v2 signature : EB0B0AA0
->Accurately ripped (v1+v2, confidence 3+6/16)
Statistics
Read error : 0
Jitter error (maybe fixed) : 0
Retry sector count : 0
Damaged sector count : 0
Track 10
Filename : /Volumes/LaCie/rips/Hummel - String Quartets/01-10 - Johann Nepomuk Hummel - String Quartet in E flat, op. 30 no. 3 - II Andante.flac
Pre-gap length : 00:03:10
CRC32 hash : 5D7E9C14
CRC32 hash (skip zero) : 2C92295A
AccurateRip v1 signature : 69A54A04
AccurateRip v2 signature : D486762B
->Accurately ripped (v1+v2, confidence 3+6/16)
Statistics
Read error : 0
Jitter error (maybe fixed) : 0
Retry sector count : 0
Damaged sector count : 0
Track 11
Filename : /Volumes/LaCie/rips/Hummel - String Quartets/01-11 - Johann Nepomuk Hummel - String Quartet in E flat, op. 30 no. 3 - III Allemande e alternativo.flac
Pre-gap length : 00:04:33
CRC32 hash : 698ED960
CRC32 hash (skip zero) : F1F427A2
AccurateRip v1 signature : EF5695A0
AccurateRip v2 signature : 9BE8CD88
->Accurately ripped (v1+v2, confidence 3+6/16)
Statistics
Read error : 0
Jitter error (maybe fixed) : 0
Retry sector count : 0
Damaged sector count : 0
Track 12
Filename : /Volumes/LaCie/rips/Hummel - String Quartets/01-12 - Johann Nepomuk Hummel - String Quartet in E flat, op. 30 no. 3 - IV Finale: Presto.flac
Pre-gap length : 00:04:35
CRC32 hash : 1F5D8A3E
CRC32 hash (skip zero) : B19C6D9A
AccurateRip v1 signature : 7FEFE9AD
AccurateRip v2 signature : 7EA163CF
->Accurately ripped (v1+v2, confidence 3+6/14)
Statistics
Read error : 0
Jitter error (maybe fixed) : 0
Retry sector count : 0
Damaged sector count : 0
No errors occurred
End of status report

Содержание индексной карты (.CUE)

TITLE "String Quartets Opus 30 nos. 1-3 - Delmé String Quartet"
PERFORMER "Johann Nepomuk Hummel"
REM GENRE "Classical"
REM DATE "1992"
REM DISCID 9F12430C
FILE "01-01 - Johann Nepomuk Hummel - String quartet in C, op. 30 no. 1 - I Adagio e mesto - Allegro ma non troppo.flac" WAVE
TRACK 01 AUDIO
TITLE "String quartet in C, op. 30 no. 1 - I Adagio e mesto - Allegro ma non troppo"
INDEX 01 00:00:00
TRACK 02 AUDIO
TITLE "String quartet in C, op. 30 no. 1 - II Allegro assai"
INDEX 00 07:51:55
FILE "01-02 - Johann Nepomuk Hummel - String quartet in C, op. 30 no. 1 - II Allegro assai.flac" WAVE
INDEX 01 00:00:00
TRACK 03 AUDIO
TITLE "String quartet in C, op. 30 no. 1 - III Adagio e cantabile"
INDEX 00 03:01:05
FILE "01-03 - Johann Nepomuk Hummel - String quartet in C, op. 30 no. 1 - III Adagio e cantabile.flac" WAVE
INDEX 01 00:00:00
TRACK 04 AUDIO
TITLE "String quartet in C, op. 30 no. 1 - IV Allegro vivace"
INDEX 00 08:42:00
FILE "01-04 - Johann Nepomuk Hummel - String quartet in C, op. 30 no. 1 - IV Allegro vivace.flac" WAVE
INDEX 01 00:00:00
TRACK 05 AUDIO
TITLE "String Quartet in G, op. 30 no. 2 - I Allegro con brio"
INDEX 00 05:36:72
FILE "01-05 - Johann Nepomuk Hummel - String Quartet in G, op. 30 no. 2 - I Allegro con brio.flac" WAVE
INDEX 01 00:00:00
TRACK 06 AUDIO
TITLE "String Quartet in G, op. 30 no. 2 - II Andante grazioso"
INDEX 00 06:27:70
FILE "01-06 - Johann Nepomuk Hummel - String Quartet in G, op. 30 no. 2 - II Andante grazioso.flac" WAVE
INDEX 01 00:00:00
TRACK 07 AUDIO
TITLE "String Quartet in G, op. 30 no. 2 - III Menuetto: Allegro con fuoco"
INDEX 00 06:54:05
FILE "01-07 - Johann Nepomuk Hummel - String Quartet in G, op. 30 no. 2 - III Menuetto: Allegro con fuoco.flac" WAVE
INDEX 01 00:00:00
TRACK 08 AUDIO
TITLE "String Quartet in G, op. 30 no. 2 - IV Finale: Vivace"
INDEX 00 07:10:53
FILE "01-08 - Johann Nepomuk Hummel - String Quartet in G, op. 30 no. 2 - IV Finale: Vivace.flac" WAVE
INDEX 01 00:00:00
TRACK 09 AUDIO
TITLE "String Quartet in E flat, op. 30 no. 3 - I Allegro con spirito"
INDEX 00 04:42:30
FILE "01-09 - Johann Nepomuk Hummel - String Quartet in E flat, op. 30 no. 3 - I Allegro con spirito.flac" WAVE
INDEX 01 00:00:00
TRACK 10 AUDIO
TITLE "String Quartet in E flat, op. 30 no. 3 - II Andante"
INDEX 00 07:01:65
FILE "01-10 - Johann Nepomuk Hummel - String Quartet in E flat, op. 30 no. 3 - II Andante.flac" WAVE
INDEX 01 00:00:00
TRACK 11 AUDIO
TITLE "String Quartet in E flat, op. 30 no. 3 - III Allemande e alternativo"
INDEX 00 07:46:42
FILE "01-11 - Johann Nepomuk Hummel - String Quartet in E flat, op. 30 no. 3 - III Allemande e alternativo.flac" WAVE
INDEX 01 00:00:00
TRACK 12 AUDIO
TITLE "String Quartet in E flat, op. 30 no. 3 - IV Finale: Presto"
INDEX 00 05:34:07
FILE "01-12 - Johann Nepomuk Hummel - String Quartet in E flat, op. 30 no. 3 - IV Finale: Presto.flac" WAVE
INDEX 01 00:00:00



Показать сообщения:    

Текущее время: 04-Дек 02:56

Часовой пояс: UTC + 3


Вы не можете начинать темы
Вы не можете отвечать на сообщения
Вы не можете редактировать свои сообщения
Вы не можете удалять свои сообщения
Вы не можете голосовать в опросах
Вы не можете прикреплять файлы к сообщениям
Вы не можете скачивать файлы