(Modern Classical, Avant-Garde) Luigi Nono - A Pierre, Dell’azzurro Silenzio etc. (Markus Hinterhauser, Susanne Otto, Les Percussions De Strasbourg, Ensemble Experimental) - 2012, FLAC (tracks+.cue) lossless


 

[Цитировать]

Luigi Nono - A Pierre, Dell’azzurro Silenzio, Inquietum / …Sofferte Onde Serene…
Жанр: Modern Classical, Avant-Garde
Страна-производитель диска: Germany
Год издания диска: 2012
Издатель (лейбл): NEOS
Номер по каталогу: NEOS 11122
Дата записи: December 2010
Аудиокодек: FLAC
Тип рипа: tracks+.cue
Битрейт аудио: lossless
Продолжительность: 54'27"
Источник: скачано с
сайт-источник/ник/другое: Demonoid
Наличие сканов в содержимом раздачи:
Треклист:
1 A Pierre. Dell’azzurro Silenzio, Inquietum - Per Flauto Contrabbasso, Clarinetto Contrabbasso E Live Electronics [1985] 9:25
2 …Sofferte Onde Serene… - Per Pianoforte E Nastro Magnetico [1976] 14:14
3 Omaggio A György Kurtág - Per Contralto, Flauto, Clarinetto, Basso Tuba E Live Electronics [1983-1986] 17:56
4 Con Luigi Dallapiccola - Per Sei Esecutori Di Percussione E Live Electronics [1979] 12:53
Исполнители:
Clarinet – Ernesto Molinari (1,3)
Flute – Roberto Fabbriciani (1)
Piano – Markus Hinterhäuser (2)
Conductor – Detlef Heusinger (3)
Contralto Vocals – Susanne Otto (3)
Ensemble – Ensemble Experimental (3)
Flute – Roberto Fabbriciani (3)
Tuba – Klaus Burger (3)
Ensemble – Les Percussions De Strasbourg (4)

Лог создания рипа

Exact Audio Copy V1.0 beta 3 from 29. August 2011
EAC extraction logfile from 29. July 2014, 19:11
Nono, Luigi / A Pierre
Used drive : TSSTcorpCDDVDW SH-216AB Adapter: 1 ID: 0
Read mode : Secure
Utilize accurate stream : Yes
Defeat audio cache : Yes
Make use of C2 pointers : No
Read offset correction : 6
Overread into Lead-In and Lead-Out : No
Fill up missing offset samples with silence : Yes
Delete leading and trailing silent blocks : No
Null samples used in CRC calculations : Yes
Used interface : Native Win32 interface for Win NT & 2000
Gap handling : Appended to previous track
Used output format : User Defined Encoder
Selected bitrate : 768 kBit/s
Quality : High
Add ID3 tag : No
Command line compressor : C:\Program Files (x86)\Exact Audio Copy\FLAC\FLAC.EXE
Additional command line options : -6 -V -T "ARTIST=%artist%" -T "TITLE=%title%" -T "ALBUM=%albumtitle%" -T "DATE=%year%" -T "TRACKNUMBER=%tracknr%" -T "GENRE=%genre%" -T "COMMENT=%comment%" -T "BAND=%albuminterpret%" -T "ALBUMARTIST=%albuminterpret%" -T "COMPOSER=%composer%" %haslyrics%--tag-from-file=LYRICS="%lyricsfile%"%haslyrics% -T "DISCNUMBER=%cdnumber%" -T "TOTALDISCS=%totalcds%" -T "TOTALTRACKS=%numtracks%" %hascover%--picture="%coverfile%"%hascover% %source% -o %dest%
TOC of the extracted CD
Track | Start | Length | Start sector | End sector
---------------------------------------------------------
1 | 0:00.02 | 9:24.39 | 2 | 42340
2 | 9:24.41 | 14:14.17 | 42341 | 106407
3 | 23:38.58 | 17:55.65 | 106408 | 187097
4 | 41:34.48 | 12:52.62 | 187098 | 245059
Track 1
Filename C:\Users\astarte\03. POST\nono\01. A Pierre. Dell'azzurro silenzio, inquietum.wav
Pre-gap length 0:00:02.02
Peak level 73.6 %
Extraction speed 2.2 X
Track quality 100.0 %
Copy CRC 19C55D0A
Accurately ripped (confidence 2) [6B663AC3] (AR v2)
Copy OK
Track 2
Filename C:\Users\astarte\03. POST\nono\02. ...sofferte onde serene.wav
Pre-gap length 0:00:09.76
Peak level 94.5 %
Extraction speed 2.8 X
Track quality 99.9 %
Copy CRC 46E6FCDA
Accurately ripped (confidence 2) [E6C64689] (AR v2)
Copy OK
Track 3
Filename C:\Users\astarte\03. POST\nono\03. Omaggio a György Kurtág.wav
Pre-gap length 0:00:09.84
Peak level 75.7 %
Extraction speed 3.5 X
Track quality 100.0 %
Copy CRC 7AA6B775
Accurately ripped (confidence 2) [330415E7] (AR v2)
Copy OK
Track 4
Filename C:\Users\astarte\03. POST\nono\04. Con Luigi Dallapiccola.wav
Pre-gap length 0:00:09.78
Peak level 95.7 %
Extraction speed 4.0 X
Track quality 100.0 %
Copy CRC EBC5D593
Accurately ripped (confidence 2) [09F8BCAD] (AR v2)
Copy OK
All tracks accurately ripped
No errors occurred
End of status report
==== Log checksum 45709820ADAC0343BFE81E4E0A3A482FDA0956257C72687146F2CE10D624D0FF ====

Содержание индексной карты (.CUE)

REM GENRE Hedendaags
REM DATE 2012
REM DISCID 2F0CC304
REM COMMENT "ExactAudioCopy v1.0b3"
PERFORMER "Nono, Luigi"
TITLE "A Pierre"
FILE "01. A Pierre. Dell'azzurro silenzio, inquietum.wav" WAVE
TRACK 01 AUDIO
TITLE "A Pierre. Dell'azzurro silenzio, inquietum"
PERFORMER "Nono, Luigi"
ISRC DEGF71112201
FLAGS DCP
PREGAP 00:00:02
INDEX 01 00:00:00
TRACK 02 AUDIO
TITLE "...sofferte onde serene"
PERFORMER "Nono, Luigi"
ISRC DEGF71112202
FLAGS DCP
INDEX 00 09:14:57
FILE "02. ...sofferte onde serene.wav" WAVE
INDEX 01 00:00:00
TRACK 03 AUDIO
TITLE "Omaggio a Gyцrgy Kurtбg"
PERFORMER "Nono, Luigi"
ISRC DEGF71112203
FLAGS DCP
INDEX 00 14:04:29
FILE "03. Omaggio a Gyorgy Kurtag.wav" WAVE
INDEX 01 00:00:00
TRACK 04 AUDIO
TITLE "Con Luigi Dallapiccola"
PERFORMER "Nono, Luigi"
ISRC DEGF71112204
FLAGS DCP
INDEX 00 17:46:06
FILE "04. Con Luigi Dallapiccola.wav" WAVE
INDEX 01 00:00:00

Лог проверки качества

d:\>d:\aucdtect -d/-m0 d:\zzz\*.wav
auCDtect: CD records authenticity detector, version 0.8.2
Copyright (c) 2004 Oleg Berngardt. All rights reserved.
Copyright (c) 2004 Alexander Djourik. All rights reserved.
------------------------------------------------------------
Processing file: [01. A Pierre. Dell'azzurro silenzio, inquietum.wav]
------------------------------------------------------------
This track looks like CDDA with probability 100%
------------------------------------------------------------
Processing file: [02. ...sofferte onde serene.wav]
------------------------------------------------------------
This track looks like CDDA with probability 58%
------------------------------------------------------------
Processing file: [03. Omaggio a Gyorgy Kurtag.wav]
------------------------------------------------------------
This track looks like CDDA with probability 100%
------------------------------------------------------------
Processing file: [04. Con Luigi Dallapiccola.wav]
------------------------------------------------------------
This track looks like MPEG with probability 90%
------------------------------------------------------------
Final Conclusion:
------------------------------------------------------------
These tracks looks like CDDA with probability 100%



Показать сообщения:    

Текущее время: 10-Дек 17:48

Часовой пояс: UTC + 3


Вы не можете начинать темы
Вы не можете отвечать на сообщения
Вы не можете редактировать свои сообщения
Вы не можете удалять свои сообщения
Вы не можете голосовать в опросах
Вы не можете прикреплять файлы к сообщениям
Вы не можете скачивать файлы