(Classical, contemporary) Magnus Lindberg - Violin Concerto; Jubilees; Souvenir - Pekka Kuusisto, Tapiola Sinfonietta, Magnus Lindberg - 2013, FLAC (image+.cue) lossless


Статистика раздачи [Обновить пиров]
Размер:  299 MB   |    Зарегистрирован:  10 месяцев 1 день   |    Скачан:  0 раз

Полного источника не было: Никогда

Личеров:  3  [  0 KB/s  ]   Подробная статистика пиров
 
   
 
 
 

[Цитировать]

Magnus Lindberg - Violin Concerto; Jubilees; Souvenir - Pekka Kuusisto, Tapiola Sinfonietta, Magnus Lindberg
Жанр: Classical, contemporary
Страна-производитель диска: Finland
Год издания диска: 2013
Издатель (лейбл): Ondine
Номер по каталогу: ODE 1175-2
Дата записи: 2010, 2013
Аудиокодек: FLAC
Тип рипа: image+.cue
Битрейт аудио: lossless
Продолжительность: 66:52
Источник: собственный рип
Наличие сканов в содержимом раздачи: да
Треклист:
Magnus Lindberg (1958)
[1]-[3] Violin Concerto (2006) *
[4]-[9] Jubilees (2000/2002) **
[10]-[12] Souvenir (2010) **
Исполнители:
Pekka Kuusisto violin & director*
Tapiola Sinfonietta
Magnus Lindberg
conductor**

Лог создания рипа

Exact Audio Copy V1.0 beta 3 from 29. August 2011
EAC extraction logfile from 17. June 2014, 1:58
Tapiola Sinfonietta / Lindberg - Violin Concerto; Jubilees; Souvenir
Used drive : HL-DT-STDVDRAM GSA-4083N Adapter: 1 ID: 0
Read mode : Secure
Utilize accurate stream : Yes
Defeat audio cache : Yes
Make use of C2 pointers : No
Read offset correction : 667
Overread into Lead-In and Lead-Out : No
Fill up missing offset samples with silence : Yes
Delete leading and trailing silent blocks : No
Null samples used in CRC calculations : Yes
Used interface : Native Win32 interface for Win NT & 2000
Used output format : User Defined Encoder
Selected bitrate : 896 kBit/s
Quality : High
Add ID3 tag : No
Command line compressor : C:\Program Files\Exact Audio Copy\Flac\flac.exe
Additional command line options : -V -8 %source%
TOC of the extracted CD
Track | Start | Length | Start sector | End sector
---------------------------------------------------------
1 | 0:00.00 | 11:09.51 | 0 | 50225
2 | 11:09.51 | 9:17.72 | 50226 | 92072
3 | 20:27.48 | 3:46.45 | 92073 | 109067
4 | 24:14.18 | 3:47.26 | 109068 | 126118
5 | 28:01.44 | 2:55.17 | 126119 | 139260
6 | 30:56.61 | 1:10.06 | 139261 | 144516
7 | 32:06.67 | 3:38.00 | 144517 | 160866
8 | 35:44.67 | 1:31.25 | 160867 | 167716
9 | 37:16.17 | 5:02.68 | 167717 | 190434
10 | 42:19.10 | 9:40.07 | 190435 | 233941
11 | 51:59.17 | 10:03.57 | 233942 | 279223
12 | 62:02.74 | 4:47.32 | 279224 | 300780
Range status and errors
Selected range
Filename J:\New Music\Magnus Lindberg - Violin Concerto; Jubilees; Souvenir\Lindberg - Violin Concerto; Jubilees; Souvenir.wav
Peak level 96.2 %
Extraction speed 3.4 X
Range quality 100.0 %
Test CRC 000DA396
Copy CRC 000DA396
Copy OK
No errors occurred
AccurateRip summary
Track 1 accurately ripped (confidence 3) [27E2604A] (AR v2)
Track 2 accurately ripped (confidence 3) [6E6E3F1F] (AR v2)
Track 3 accurately ripped (confidence 3) [A2D5876C] (AR v2)
Track 4 accurately ripped (confidence 3) [4F4FD575] (AR v2)
Track 5 accurately ripped (confidence 3) [D1471957] (AR v2)
Track 6 accurately ripped (confidence 3) [77C0290D] (AR v2)
Track 7 accurately ripped (confidence 3) [40E19200] (AR v2)
Track 8 accurately ripped (confidence 3) [FA247D8E] (AR v2)
Track 9 accurately ripped (confidence 3) [C88AFA57] (AR v2)
Track 10 accurately ripped (confidence 3) [39E80733] (AR v2)
Track 11 accurately ripped (confidence 3) [9C7ABB3B] (AR v2)
Track 12 accurately ripped (confidence 3) [5BFE48A0] (AR v2)
All tracks accurately ripped
End of status report
==== Log checksum A326EDE89A7CE446BA5DE7335E13DAEE45336DA69712AC25DA2E2F91328E97A7 ====
[teatrix.ru].t18951.torrent 
Торрент: Зарегистрирован [ 2016-03-18 12:27 ] · 60BEFB285042161560E5BA104BBEF45421936A2D

Скачать .torrent

Скачать

25 KB

Статус: проверено
Скачан: 0 раз
Размер: 299 MB
terms.php



Быстрый ответ

Имя:

      
Для отправки сообщений необходимо включить JavaScript
Показать сообщения:    

Текущее время: 19-Янв 22:17

Часовой пояс: UTC + 3


Вы можете начинать темы
Вы можете отвечать на сообщения
Вы не можете редактировать свои сообщения
Вы не можете удалять свои сообщения
Вы не можете голосовать в опросах
Вы не можете прикреплять файлы к сообщениям
Вы можете скачивать файлы