(Concerto) Гейр Твейт - Фортепианный концерт № 3 'Памяти Брамса', Соната № 29, Эолова арфа, Флуоресценции / Geirr Tveitt - Piano Concerto №3 'Hommage a Brahms', Piano Sonata №29, Aolean Harp, Morild (Geir Tveitt) - 1994, FLAC (tracks+.cue) lossless


Статистика раздачи [Обновить пиров]
Размер:  338 MB   |    Зарегистрирован:  8 месяцев 22 дня   |    Скачан:  0 раз

Полного источника не было: Никогда

Личеров:  3  [  0 KB/s  ]   Подробная статистика пиров
 
   
 
 
 

[Цитировать]

Geirr Tveitt plays Geirr Tveitt: Piano Concerto No.3 "Hommage a Brahms", Piano Sonata No.29, Aolean Harp, Morild
Жанр: Concerto
Страна-производитель диска: Norway
Год издания диска: 1994
Издатель (лейбл): Simax Classics
Номер по каталогу: PSC 1805
Дата записи: 1947-52
Аудиокодек: FLAC
Тип рипа: tracks+.cue
Битрейт аудио: lossless
Продолжительность: 77'50
Источник: скачано с
Наличие сканов в содержимом раздачи: да
Треклист:
Geirr Tveitt (1908-1981)

Piano Concerto No. 3, Op. 126, "Hommage A Brahms" (1933/47) * exists only on a 1947 recording, with Tveitt
1 I. Allegro (10:32)
2 II. Largo (7:10)
3 III. Presto (12:12)
Piano Sonata No. 29, Op. 129 "Sonata Etere" (1933-47) * is Tveitt's only surviving piano sonata
4 I. In e cerca di...: moderato (6:54)

5 II. Tono etero in variazioni: tranquillo ma deciso (15:53)
6 III. Tempo di pulsazione (10:14)
7 Jorn Ording Reads Gerhard Munthe's Poem "Eolsharpa"
8 Eolsharpa / Aolean Harp (1947) 8:37
9 Morild / Sillage Phosphorescants (19?) 4:53
Исполнители:
Geirr Tveitt, piano
Bergen Philharmonic Orchestra
Albert Wolff, conductor
rec. 1947 (1-3), 1955 (4-6), 1949 (7-8), 1952 (9)

Лог создания рипа

Exact Audio Copy V0.99 prebeta 5 from 4. May 2009
EAC extraction logfile from 7. February 2010, 16:54
Geirr Tveitt / Tveitt Plays Tveitt (Simax PSC1805)
Used drive : TSSTcorpCDDVDW SH-S223B Adapter: 1 ID: 0
Read mode : Secure
Utilize accurate stream : Yes
Defeat audio cache : No
Make use of C2 pointers : No
Read offset correction : 6
Overread into Lead-In and Lead-Out : No
Fill up missing offset samples with silence : Yes
Delete leading and trailing silent blocks : No
Null samples used in CRC calculations : Yes
Used interface : Installed external ASPI interface
Gap handling : Appended to previous track
Used output format : User Defined Encoder
Selected bitrate : 128 kBit/s
Quality : High
Add ID3 tag : No
Command line compressor : C:\Program Files\Exact Audio Copy\Flac\flac.exe
Additional command line options : -6 -V -T "artist=%a" -T "title=%t" -T "album=%g" -T "date=%y" -T "tracknumber=%n" -T "genre=%m" -T comment="%e" -T "comment=EAC-Secure Mode" %s
TOC of the extracted CD
Track | Start | Length | Start sector | End sector
---------------------------------------------------------
1 | 0:00.00 | 10:32.17 | 0 | 47416
2 | 10:32.17 | 7:10.00 | 47417 | 79666
3 | 17:42.17 | 12:12.50 | 79667 | 134616
4 | 29:54.67 | 6:54.40 | 134617 | 165706
5 | 36:49.32 | 15:53.10 | 165707 | 237191
6 | 52:42.42 | 10:14.35 | 237192 | 283276
7 | 62:57.02 | 0:50.60 | 283277 | 287086
8 | 63:47.62 | 9:08.28 | 287087 | 328214
9 | 72:56.15 | 4:58.47 | 328215 | 350611
Track 1
Filename Z:\home\thomas\Music\Geirr Tveitt\Tveitt plays Tveitt - Simax PSC1805\Geirr Tveitt - 01 - Tveitt - Bergen PO - Wolff (1947)- Piano Concerto Nr.3, Op.126 'Hommage а Brahms' - I. Allegro.wav
Pre-gap length 0:00:02.00
Peak level 77.6 %
Track quality 99.9 %
Copy CRC 14EF9C26
Track not present in AccurateRip database
Copy OK
Track 2
Filename Z:\home\thomas\Music\Geirr Tveitt\Tveitt plays Tveitt - Simax PSC1805\Geirr Tveitt - 02 - Tveitt - Bergen PO - Wolff (1947)- Piano Concerto Nr.3, Op.126 'Hommage а Brahms' - II. Largo.wav
Pre-gap length 0:00:03.49
Peak level 67.6 %
Track quality 99.9 %
Copy CRC 95924A72
Track not present in AccurateRip database
Copy OK
Track 3
Filename Z:\home\thomas\Music\Geirr Tveitt\Tveitt plays Tveitt - Simax PSC1805\Geirr Tveitt - 03 - Tveitt - Bergen PO - Wolff (1947)- Piano Concerto Nr.3, Op.126 'Hommage а Brahms' - III. Presto.wav
Pre-gap length 0:00:03.00
Peak level 66.7 %
Track quality 100.0 %
Copy CRC D17214EE
Track not present in AccurateRip database
Copy OK
Track 4
Filename Z:\home\thomas\Music\Geirr Tveitt\Tveitt plays Tveitt - Simax PSC1805\Geirr Tveitt - 04 - Tveitt (1955)- Piano Sonata Nr.29, Op.129 'Sonata etere' - I. In e cerca di...- moderato.wav
Pre-gap length 0:00:09.13
Peak level 73.5 %
Track quality 100.0 %
Copy CRC 608D2211
Track not present in AccurateRip database
Copy OK
Track 5
Filename Z:\home\thomas\Music\Geirr Tveitt\Tveitt plays Tveitt - Simax PSC1805\Geirr Tveitt - 05 - Tveitt (1955)- Piano Sonata Nr.29, Op.129 'Sonata etere' - II. Tono etero in variazioni- tranquillo ma deciso.wav
Pre-gap length 0:00:05.13
Peak level 95.0 %
Track quality 100.0 %
Copy CRC 6ACCFA27
Track not present in AccurateRip database
Copy OK
Track 6
Filename Z:\home\thomas\Music\Geirr Tveitt\Tveitt plays Tveitt - Simax PSC1805\Geirr Tveitt - 06 - Tveitt (1955)- Piano Sonata Nr.29, Op.129 'Sonata etere' - III. Tempo di pulsazione.wav
Pre-gap length 0:00:02.33
Peak level 76.1 %
Track quality 100.0 %
Copy CRC BD70E1C5
Track not present in AccurateRip database
Copy OK
Track 7
Filename Z:\home\thomas\Music\Geirr Tveitt\Tveitt plays Tveitt - Simax PSC1805\Geirr Tveitt - 07 - Jшrn Ording reads Gerhard Munthe's poem 'Eolsharpa'.wav
Pre-gap length 0:00:09.76
Peak level 49.5 %
Track quality 99.7 %
Copy CRC 79BA4319
Track not present in AccurateRip database
Copy OK
Track 8
Filename Z:\home\thomas\Music\Geirr Tveitt\Tveitt plays Tveitt - Simax PSC1805\Geirr Tveitt - 08 - Tveitt (1949)- Eolsharpa (Aolean Harp).wav
Peak level 47.9 %
Track quality 100.0 %
Copy CRC E124A953
Track not present in AccurateRip database
Copy OK
Track 9
Filename Z:\home\thomas\Music\Geirr Tveitt\Tveitt plays Tveitt - Simax PSC1805\Geirr Tveitt - 09 - Tveitt (1952)- Morild (Sillage phosphorescants).wav
Pre-gap length 0:00:09.57
Peak level 64.5 %
Track quality 100.0 %
Copy CRC 16478FC3
Track not present in AccurateRip database
Copy OK
None of the tracks are present in the AccurateRip database
No errors occurred
End of status report

Содержание индексной карты (.CUE)

REM GENRE Classical
REM DISCID 8B124209
REM COMMENT "ExactAudioCopy v0.99pb5"
PERFORMER "Geirr Tveitt"
TITLE "Tveitt Plays Tveitt (Simax PSC1805)"
FILE "Geirr Tveitt - 01 - Tveitt - Bergen PO - Wolff (1947)- Piano Concerto Nr.3, Op.126 'Hommage а Brahms' - I. Allegro.wav" WAVE
TRACK 01 AUDIO
TITLE "Tveitt - Bergen PO - Wolff (1947): Piano Concerto Nr.3, Op.126 'Hommage а Bra..."
PERFORMER "Geirr Tveitt"
ISRC NOFZS9413010
INDEX 01 00:00:00
TRACK 02 AUDIO
TITLE "Tveitt - Bergen PO - Wolff (1947): Piano Concerto Nr.3, Op.126 'Hommage а Bra..."
PERFORMER "Geirr Tveitt"
ISRC NOFZS9413020
INDEX 00 10:28:55
FILE "Geirr Tveitt - 02 - Tveitt - Bergen PO - Wolff (1947)- Piano Concerto Nr.3, Op.126 'Hommage а Brahms' - II. Largo.wav" WAVE
INDEX 01 00:00:00
TRACK 03 AUDIO
TITLE "Tveitt - Bergen PO - Wolff (1947): Piano Concerto Nr.3, Op.126 'Hommage а Bra..."
PERFORMER "Geirr Tveitt"
ISRC NOFZS9413030
INDEX 00 07:07:00
FILE "Geirr Tveitt - 03 - Tveitt - Bergen PO - Wolff (1947)- Piano Concerto Nr.3, Op.126 'Hommage а Brahms' - III. Presto.wav" WAVE
INDEX 01 00:00:00
TRACK 04 AUDIO
TITLE "Tveitt (1955): Piano Sonata Nr.29, Op.129 'Sonata etere' - I. In e cerca di....."
PERFORMER "Geirr Tveitt"
ISRC NOFZS9413040
INDEX 00 12:03:40
FILE "Geirr Tveitt - 04 - Tveitt (1955)- Piano Sonata Nr.29, Op.129 'Sonata etere' - I. In e cerca di...- moderato.wav" WAVE
INDEX 01 00:00:00
TRACK 05 AUDIO
TITLE "Tveitt (1955): Piano Sonata Nr.29, Op.129 'Sonata etere' - II. Tono etero in ..."
PERFORMER "Geirr Tveitt"
ISRC NOFZS9413050
INDEX 00 06:49:30
FILE "Geirr Tveitt - 05 - Tveitt (1955)- Piano Sonata Nr.29, Op.129 'Sonata etere' - II. Tono etero in variazioni- tranquillo ma deciso.wav" WAVE
INDEX 01 00:00:00
TRACK 06 AUDIO
TITLE "Tveitt (1955): Piano Sonata Nr.29, Op.129 'Sonata etere' - III. Tempo di puls..."
PERFORMER "Geirr Tveitt"
ISRC NOFZS9413060
INDEX 00 15:50:60
FILE "Geirr Tveitt - 06 - Tveitt (1955)- Piano Sonata Nr.29, Op.129 'Sonata etere' - III. Tempo di pulsazione.wav" WAVE
INDEX 01 00:00:00
TRACK 07 AUDIO
TITLE "Jшrn Ording reads Gerhard Munthe's poem 'Eolsharpa'"
PERFORMER "Geirr Tveitt"
ISRC NOFZS9413070
INDEX 00 10:04:53
FILE "Geirr Tveitt - 07 - Jшrn Ording reads Gerhard Munthe's poem 'Eolsharpa'.wav" WAVE
INDEX 01 00:00:00
FILE "Geirr Tveitt - 08 - Tveitt (1949)- Eolsharpa (Aolean Harp).wav" WAVE
TRACK 08 AUDIO
TITLE "Tveitt (1949): Eolsharpa (Aolean Harp)"
PERFORMER "Geirr Tveitt"
ISRC NOFZS9413080
INDEX 01 00:00:00
TRACK 09 AUDIO
TITLE "Tveitt (1952): Morild (Sillage phosphorescants)"
PERFORMER "Geirr Tveitt"
ISRC NOFZS9413090
INDEX 00 08:58:60
FILE "Geirr Tveitt - 09 - Tveitt (1952)- Morild (Sillage phosphorescants).wav" WAVE
INDEX 01 00:00:00
Доп. информация: Одним из наиболее значительных событий в процессе "возрождения Твейта" явился выход в свет собрания записей Твейта-пианиста, осуществленный норвежской компанией SIMAX Classics в 1994 году. В компакт-диск включены Третий фортепианный концерт “Памяти Брамса”, в котором автор исполнил партию сольного фортепиано (1947 г.), его единственная сохранившаяся Двадцать девятая фортепианная соната “Соната эфира” (1955 г.), пьесы “Эолова арфа” (1949 г.) и “Флуоресценции” ("Morild") (1952. Этот уникальный релиз позволяет нам воссоздать облик Твейта, чей пианистический талант известный норвежский пианист Лейф Уве Андснес сопоставляет с даром Рахманинова, Скрябина и Прокофьева. Кроме того, оригинальные партитуры трёх из четырёх записанных на диске сочинений были уничтожены во время пожара 1970 года, и это пока единственная возможность их услышать в первозданном виде.

О сочинениях

Концерт для фортепиано с оркестром № 3 "Памяти Брамса" (1933, ред. 1947), посвящённый великому немецкому композитору - яркий образец пианистического мастерства Твейта, талантливая стилизация в современном духе. Фактура и интонации Брамса служат лишь основой для вполне оригинальных композиторских импровизаций - в результате музыка захватывает драматизмом и колористическими изысками. Несмотря на несовершенство записи конца 40х, концерт слушается с интересом. Остаётся только сожалеть, что 2й фортепианный концерт "Памяти Равеля" не уцелел даже в записи.
Соната для фортепиано № 29, "Соната Эфира" (Sonata Etere), ор. 129 (1934-35, опубл. 1938, ред. 1947) – единственная сохранившаяся соната Твейта и возможо самая знаменитая норвежская фортепианная соната XX века. Масштабная (30 минут звучания), интересная по гармоническим и пианистическим приёмам соната характеризуется бимодальными / черно-белыми эффектами, разнообразными переменными ритмическими рисунками, постоянными сдвигами акцентов. В первой части, названной "В поисках" излагаются две главные темы сочинения - Cerca Di (сосбственно - в поисках) и Тоno Etereo (Тема эфира). Обе темы в разработке часто расположены рядом - развиваются как одна единственная, но при этом находятся в постоянной оппозиции друг к другу Вторая часть представляет собой вариации на найденную "Эфирную тему" – всего их девятнадцать. В 15й вариацию вторгается первая тема, с этого момента они вновь звучат как бы параллельно. Третья часть - Tempo di Pulsazione - причудливый танец, основанный на первой теме. Завершается соната необычными атмосферными “эфирными” звучаниями.
Весьма интересны и колоритны по звучанию пьесы Эолова арфа (Eolsharpa), соч. 132 (1947?) и Флоуренсценции (Morild), написанные в стилистике скандинавского импрессионизма. Название последней происходит от загадочного феномена флуоресцентного сияния моря - светового эффекта, производимого планктоном в морской воде ночью.
[teatrix.ru].t18952.torrent 
Торрент: Зарегистрирован [ 2016-03-18 12:27 ] · 3498B61863433771762520B8BED7266EDC6F8DEC

Скачать .torrent

Скачать

15 KB

Статус: проверено
Скачан: 0 раз
Размер: 338 MB
terms.php



Быстрый ответ

Имя:

      
Для отправки сообщений необходимо включить JavaScript
Показать сообщения:    

Текущее время: 09-Дек 22:26

Часовой пояс: UTC + 3


Вы можете начинать темы
Вы можете отвечать на сообщения
Вы не можете редактировать свои сообщения
Вы не можете удалять свои сообщения
Вы не можете голосовать в опросах
Вы не можете прикреплять файлы к сообщениям
Вы можете скачивать файлы