(Classical) American Piano Concertos: Barber, Copland, Gershwin - Xiayin Wang, Royal Scottish National Orchestra, Peter Oundjian - 2013, FLAC (image+.cue) lossless


Статистика раздачи [Обновить пиров]
Размер:  284 MB   |    Зарегистрирован:  8 месяцев 20 дней   |    Скачан:  0 раз

Полного источника не было: Никогда

Личеров:  3  [  0 KB/s  ]   Подробная статистика пиров
 
   
 
 
 

[Цитировать]

American Piano Concertos: Barber, Copland, Gershwin - Xiayin Wang, Royal Scottish National Orchestra, Peter Oundjian
Жанр: Classical
Страна-производитель диска: UK
Год издания диска: 2013
Издатель (лейбл): Chandos Records
Номер по каталогу: CHSA 5128
Дата записи: 2013
Аудиокодек: FLAC
Тип рипа: image+.cue
Битрейт аудио: lossless
Продолжительность: 75:44
Источник: собственный рип
Наличие сканов в содержимом раздачи: да
Треклист:
Samuel Barber (1910 – 1981)
[1]-[3] Concerto for Piano and Orchestra, Op. 38 (1962)
Aaron Copland (1900 – 1990)
[4]-[5] Concerto for Piano and Orchestra (1926)
George Gershwin (1898 – 1937)
[6]-[8] Concerto for Piano and Orchestra in F major (1925)
Исполнители:
Xiayin Wang piano
Royal Scottish National Orchestra
Peter Oundjian

Лог создания рипа

Exact Audio Copy V1.0 beta 3 from 29. August 2011
EAC extraction logfile from 19. July 2014, 16:30
Xiayin Wang, Royal Scottish National Orchestra, Peter Oundjian / American Piano Concertos
Used drive : HL-DT-STDVDRAM GU70N Adapter: 0 ID: 0
Read mode : Secure
Utilize accurate stream : Yes
Defeat audio cache : Yes
Make use of C2 pointers : No
Read offset correction : 48
Overread into Lead-In and Lead-Out : No
Fill up missing offset samples with silence : Yes
Delete leading and trailing silent blocks : No
Null samples used in CRC calculations : Yes
Used interface : Native Win32 interface for Win NT & 2000
Used output format : User Defined Encoder
Selected bitrate : 128 kBit/s
Quality : High
Add ID3 tag : No
Command line compressor : C:\Program Files (x86)\Exact Audio Copy\Flac\flac.exe
Additional command line options : -V -8 -T "Date=%year%" -T "Genre=%genre%" %source%
TOC of the extracted CD
Track | Start | Length | Start sector | End sector
---------------------------------------------------------
1 | 0:00.00 | 13:59.18 | 0 | 62942
2 | 13:59.18 | 7:07.45 | 62943 | 95012
3 | 21:06.63 | 6:49.00 | 95013 | 125687
4 | 27:55.63 | 6:21.20 | 125688 | 154282
5 | 34:17.08 | 9:30.55 | 154283 | 197087
6 | 43:47.63 | 13:03.20 | 197088 | 255832
7 | 56:51.08 | 12:02.10 | 255833 | 309992
8 | 68:53.18 | 6:49.57 | 309993 | 340724
Range status and errors
Selected range
Filename C:\temp\American Piano Concertos - Xiayin Wang\American Piano Concertos.wav
Peak level 97.0 %
Extraction speed 2.1 X
Range quality 99.9 %
Test CRC D6E66DA0
Copy CRC D6E66DA0
Copy OK
No errors occurred
AccurateRip summary
Track 1 accurately ripped (confidence 5) [F5E5A934] (AR v2)
Track 2 accurately ripped (confidence 5) [0B1749AE] (AR v2)
Track 3 accurately ripped (confidence 5) [75CF494C] (AR v2)
Track 4 accurately ripped (confidence 5) [549948B4] (AR v2)
Track 5 accurately ripped (confidence 5) [322481B2] (AR v2)
Track 6 accurately ripped (confidence 5) [BF8C0245] (AR v2)
Track 7 accurately ripped (confidence 5) [46DFE026] (AR v2)
Track 8 accurately ripped (confidence 5) [A91301C1] (AR v2)
All tracks accurately ripped
End of status report
==== Log checksum 5C0D830C4F5660A9AC42A0088911552F81FE651A6B5BD72C36AA16A2236EA1D2 ====
[teatrix.ru].t18954.torrent 
Торрент: Зарегистрирован [ 2016-03-18 12:27 ] · 30FD728832AAEC34DFA681F0591C86C32DBB75D6

Скачать .torrent

Скачать

23 KB

Статус: проверено
Скачан: 0 раз
Размер: 284 MB
terms.php



Быстрый ответ

Имя:

      
Для отправки сообщений необходимо включить JavaScript
Показать сообщения:    

Текущее время: 08-Дек 07:04

Часовой пояс: UTC + 3


Вы можете начинать темы
Вы можете отвечать на сообщения
Вы не можете редактировать свои сообщения
Вы не можете удалять свои сообщения
Вы не можете голосовать в опросах
Вы не можете прикреплять файлы к сообщениям
Вы можете скачивать файлы