(Classical) Аренский – Скрипичный концерт; Глазунов – Фортепианный концерт № 1, Концерт-баллада / Arensky & Glazunov – Concertos (Pirzadeh; Тростянский, Дьячков, Туровский / Trostiansky, Dyachkov, Turovsky) - 1997, FLAC (image+.cue) lossless


Статистика раздачи [Обновить пиров]
Размер:  305 MB   |    Зарегистрирован:  8 месяцев 21 день   |    Скачан:  0 раз

Полного источника не было: Никогда

Личеров:  3  [  0 KB/s  ]   Подробная статистика пиров
 
   
 
 
 

[Цитировать]

Аренский – Скрипичный концерт; Глазунов – Фортепианный концерт № 1, Концерт-баллада / Arensky & Glazunov – Concertos (Pirzadeh; Тростянский, Дьячков, Туровский / Trostiansky, Dyachkov, Turovsky)
Жанр: Classical
Страна-производитель диска: ЕС
Год издания диска: 1997
Издатель (лейбл): Chandos
Номер по каталогу: CHAN 9528
Дата записи: 19 — 20 августа 1996 г., Монреаль.
Аудиокодек: FLAC
Тип рипа: image+.cue
Битрейт аудио: lossless
Продолжительность: 01:11:43
Источник: odeonmusic
Треклист:
Антон (Антоний) Степанович Аренский (1861 — 1906).
Скрипичный концерт a-moll, op. 54 (1891).
01. Allegro. — [05:49].
02. — Adagio non troppo. — Allegro. — Cadenza. — [04:32].
03. — Tempo di valse. — [05:10].
04. — Poco meno mosso. — Tempo I. — Cadenza. — Tempo I. — Poco più mosso. [06:17].
Александр Константинович Глазунов (1865 — 1936).
Концерт-баллада C-dur для виолончели с оркестром, op. 108 (1931).
05. Allegro commodo. — [06:48].
06. — Adagio. — [09:24].
07. — Allegro marciale [05:08].
Фортепианный концерт № 1 f-moll, op. 92 (1910 — 1911).
08. I. Allegro moderato [11:48].
09. II. Tema con variazioni. — Tema. Andantino tranquillo. — [01:20].
10. II. Tema con variazioni. — Variazione I. — [01:17].
11. II. Tema con variazioni. — Variazione II (chromatica). Andantino. — [01:13].
12. II. Tema con variazioni. — Variazione III (eroica). Allegro moderato. — [01:01].
13. II. Tema con variazioni. — Variazione IV (lyrica). Adagio. — [02:21].
14. II. Tema con variazioni. — Variazione V (Intermezzo). Allegro. — [00:41].
15. II. Tema con variazioni. — Variazione VI (quasi una fantasia). Lento. — [02:00].
16. II. Tema con variazioni. — Variazione VII (Mazurka). Allegretto. — [01:33].
17. II. Tema con variazioni. — Variazione VIII (Scherzo). Allegro ma non troppo. — [01:37].
18. II. Tema con variazioni. — Variazione IX (Finale). Allegro moderato [03:25].
Исполнители:
Александр Тростянский (скрипка),
Егор Дьячков (виолончель),
Maneli Pirzadeh (фортепиано).
I Musici de Montréal.
Дирижер Юлий Туровский.

Лог создания рипа

Exact Audio Copy V1.0 beta 3 from 29. August 2011
EAC extraction logfile from 9. April 2014, 15:56
Yuli Turovsky / Arensky, Glazunov - Concertos - Yuli Turovsky
Used drive : TSSTcorpCDDVDW SH-222BB Adapter: 2 ID: 1
Read mode : Secure
Utilize accurate stream : Yes
Defeat audio cache : Yes
Make use of C2 pointers : No
Read offset correction : 6
Overread into Lead-In and Lead-Out : No
Fill up missing offset samples with silence : Yes
Delete leading and trailing silent blocks : No
Null samples used in CRC calculations : Yes
Used interface : Native Win32 interface for Win NT & 2000
Used output format : User Defined Encoder
Selected bitrate : 896 kBit/s
Quality : High
Add ID3 tag : No
Command line compressor : C:\Program Files\Exact Audio Copy\FLAC\FLAC.EXE
Additional command line options : -8 -V -T "TITLE=%title%" -T "ARTIST=%artist%" -T "ALBUMARTIST=%albumartist%" -T "ALBUM=%albumtitle%" -T "DATE=%year%" -T "TRACKNUMBER=%tracknr%" -T "TRACKTOTAL=%numtracks%" -T "GENRE=%genre%" -T "COMMENT=%comment%" -T "PERFORMER=%albuminterpret%" -T "COMPOSER=%composer%" %source% -o %dest%
TOC of the extracted CD
Track | Start | Length | Start sector | End sector
---------------------------------------------------------
1 | 0:00.00 | 5:49.35 | 0 | 26209
2 | 5:49.35 | 4:32.22 | 26210 | 46631
3 | 10:21.57 | 5:09.58 | 46632 | 69864
4 | 15:31.40 | 6:23.32 | 69865 | 98621
5 | 21:54.72 | 6:47.70 | 98622 | 129216
6 | 28:42.67 | 9:24.38 | 129217 | 171554
7 | 38:07.30 | 5:14.45 | 171555 | 195149
8 | 43:22.00 | 11:53.05 | 195150 | 248629
9 | 55:15.05 | 1:20.05 | 248630 | 254634
10 | 56:35.10 | 1:16.70 | 254635 | 260404
11 | 57:52.05 | 1:12.37 | 260405 | 265841
12 | 59:04.42 | 1:00.55 | 265842 | 270396
13 | 60:05.22 | 2:21.08 | 270397 | 280979
14 | 62:26.30 | 0:40.37 | 280980 | 284016
15 | 63:06.67 | 1:59.40 | 284017 | 292981
16 | 65:06.32 | 1:32.40 | 292982 | 299921
17 | 66:38.72 | 1:37.33 | 299922 | 307229
18 | 68:16.30 | 3:27.37 | 307230 | 322791
Range status and errors
Selected range
Filename E:\3000\[3724] Arensky, Glazunov – Concertos – Yuli Turovsky\Arensky, Glazunov - Concertos - Yuli Turovsky.wav
Peak level 99.9 %
Extraction speed 7.3 X
Range quality 100.0 %
Test CRC F940A4B6
Copy CRC F940A4B6
Copy OK
No errors occurred
AccurateRip summary
Track 1 accurately ripped (confidence 2) [BDC73C08] (AR v2)
Track 2 accurately ripped (confidence 2) [0032CE02] (AR v2)
Track 3 accurately ripped (confidence 2) [274431F1] (AR v2)
Track 4 accurately ripped (confidence 2) [148BECFA] (AR v2)
Track 5 accurately ripped (confidence 2) [3CB1809F] (AR v2)
Track 6 accurately ripped (confidence 2) [1E35DE73] (AR v2)
Track 7 accurately ripped (confidence 2) [306FB530] (AR v2)
Track 8 accurately ripped (confidence 2) [3C9B60AB] (AR v2)
Track 9 accurately ripped (confidence 2) [9F8352CD] (AR v2)
Track 10 accurately ripped (confidence 2) [767DC3A5] (AR v2)
Track 11 accurately ripped (confidence 2) [5A6C7308] (AR v2)
Track 12 accurately ripped (confidence 2) [B546CDE5] (AR v2)
Track 13 accurately ripped (confidence 2) [531BC358] (AR v2)
Track 14 accurately ripped (confidence 2) [44A35043] (AR v2)
Track 15 accurately ripped (confidence 2) [07E5D8E3] (AR v2)
Track 16 accurately ripped (confidence 2) [4B272121] (AR v2)
Track 17 accurately ripped (confidence 2) [CD38A56D] (AR v2)
Track 18 accurately ripped (confidence 3) [D38527AC] (AR v1)
All tracks accurately ripped
End of status report
==== Log checksum 7A9AF744C4C8EF24931EE42D28A11129A643A2F4D084F666AC5FC4D5627553E6 ====

Содержание индексной карты (.CUE)

REM GENRE "Chamber Orchestra"
REM DATE 1997
REM DISCID 1510CF12
REM COMMENT "ExactAudioCopy v1.0b3"
CATALOG 0095115952825
PERFORMER "Yuli Turovsky"
TITLE "Arensky & Glazunov – Concertos – Yuli Turovsky"
FILE "Arensky & Glazunov – Concertos – Yuli Turovsky.flac" WAVE
TRACK 01 AUDIO
TITLE "Arensky - Violin Concerto in A minor, Op. 54 - Allegro -"
PERFORMER "Yuli Turovsky"
INDEX 01 00:00:00
TRACK 02 AUDIO
TITLE "Arensky - Violin Concerto in A minor, Op. 54 - Adagio non troppo - Allegro -"
PERFORMER "Yuli Turovsky"
INDEX 01 05:49:35
TRACK 03 AUDIO
TITLE "Arensky - Violin Concerto in A minor, Op. 54 - Tempo di valse -"
PERFORMER "Yuli Turovsky"
INDEX 01 10:21:57
TRACK 04 AUDIO
TITLE "Arensky - Violin Concerto in A minor, Op. 54 - Poco meno mosso"
PERFORMER "Yuli Turovsky"
INDEX 01 15:31:40
TRACK 05 AUDIO
TITLE "Glazunov - Concerto ballata in C major for cello & orchestra, Op. 108 - Allegro commodo -"
PERFORMER "Yuli Turovsky"
INDEX 00 21:48:72
INDEX 01 21:54:72
TRACK 06 AUDIO
TITLE "Glazunov - Concerto ballata in C major for cello & orchestra, Op. 108 - Adagio - Piu mosso allegro -"
PERFORMER "Yuli Turovsky"
INDEX 01 28:42:67
TRACK 07 AUDIO
TITLE "Glazunov - Concerto ballata in C major for cello & orchestra, Op. 108 - Allegro marciale"
PERFORMER "Yuli Turovsky"
INDEX 01 38:07:30
TRACK 08 AUDIO
TITLE "Glazunov - Piano Concerto No. 1 in F minor, Op. 92 - I. Allegro moderato"
PERFORMER "Yuli Turovsky"
INDEX 00 43:15:30
INDEX 01 43:22:00
TRACK 09 AUDIO
TITLE "Glazunov - Piano Concerto No. 1 in F minor, Op. 92 - II. Theme. Andantino tranquillo -"
PERFORMER "Yuli Turovsky"
INDEX 00 55:09:60
INDEX 01 55:15:05
TRACK 10 AUDIO
TITLE "Glazunov - Piano Concerto No. 1 in F minor, Op. 92 - Var. I -"
PERFORMER "Yuli Turovsky"
INDEX 01 56:35:10
TRACK 11 AUDIO
TITLE "Glazunov - Piano Concerto No. 1 in F minor, Op. 92 - Var. II (chromatica). Andantino -"
PERFORMER "Yuli Turovsky"
INDEX 01 57:52:05
TRACK 12 AUDIO
TITLE "Glazunov - Piano Concerto No. 1 in F minor, Op. 92 - Var. III (eroica). Allegro moderato -"
PERFORMER "Yuli Turovsky"
INDEX 01 59:04:42
TRACK 13 AUDIO
TITLE "Glazunov - Piano Concerto No. 1 in F minor, Op. 92 - Var. IV (lyrica). Adagio -"
PERFORMER "Yuli Turovsky"
INDEX 01 60:05:22
TRACK 14 AUDIO
TITLE "Glazunov - Piano Concerto No. 1 in F minor, Op. 92 - Var. V (Intermezzo). Allegro -"
PERFORMER "Yuli Turovsky"
INDEX 01 62:26:30
TRACK 15 AUDIO
TITLE "Glazunov - Piano Concerto No. 1 in F minor, Op. 92 - Var. VI (quasi una fantasia). Lento -"
PERFORMER "Yuli Turovsky"
INDEX 01 63:06:67
TRACK 16 AUDIO
TITLE "Glazunov - Piano Concerto No. 1 in F minor, Op. 92 - Var. VII (Mazurka). Allegretto -"
PERFORMER "Yuli Turovsky"
INDEX 01 65:06:32
TRACK 17 AUDIO
TITLE "Glazunov - Piano Concerto No. 1 in F minor, Op. 92 - Var. VIII (Scherzando). Allegro ma non troppo -"
PERFORMER "Yuli Turovsky"
INDEX 01 66:38:72
TRACK 18 AUDIO
TITLE "Glazunov - Piano Concerto No. 1 in F minor, Op. 92 - Var. IX (Finale). Allegro moderato"
PERFORMER "Yuli Turovsky"
INDEX 01 68:16:30
-Юлий Эдуардович Конюс. Скрипичный концерт. Карл Юльевич Давыдов. Виолончельный концерт № 2. Александр Константинович Глазунов. Фортепианный концерт № 2 (Юлий Туровский и победители Второго Орфордского конкурса).
[teatrix.ru].t18956.torrent 
Торрент: Зарегистрирован [ 2016-03-18 12:27 ] · 8AF679B285E2C7021851534B5B8946925C0703A7

Скачать .torrent

Скачать

13 KB

Статус: проверено
Скачан: 0 раз
Размер: 305 MB
terms.php



Быстрый ответ

Имя:

      
Для отправки сообщений необходимо включить JavaScript
Показать сообщения:    

Текущее время: 08-Дек 19:04

Часовой пояс: UTC + 3


Вы можете начинать темы
Вы можете отвечать на сообщения
Вы не можете редактировать свои сообщения
Вы не можете удалять свои сообщения
Вы не можете голосовать в опросах
Вы не можете прикреплять файлы к сообщениям
Вы можете скачивать файлы