(Classical) Henry Purcell: Songs • George Crumb: Apparition - Christine Schäfer (Schafer), Eric Schneider - 2007, FLAC (image+.cue) lossless


 

[Цитировать]

Henry Purcell: Songs • George Crumb: Apparition - Christine Schäfer, Eric Schneider
Жанр: Classical
Год издания диска: 2007
Издатель (лейбл): Onyx Classics
Номер по каталогу: ONYX 4021
Дата записи: 2004
Аудиокодек: FLAC
Тип рипа: image+.cue
Битрейт аудио: lossless
Продолжительность: 70:33
Источник: собственный рип
Наличие сканов в содержимом раздачи: да
Треклист:
APPARITION
Henry Purcell (1659–1695)
George Crumb (1929– )
[With spoken introductions from the sonnets of William Shakespeare]
Henry Purcell
[1 So long as men can breathe]
2 Music for a while
3 If music be the food of love [First setting, 1692]
4 Ah! how sweet it is to love
[5 Do I envy those jacks, that nimble leap]
6 An Epithalamium (Thrice happy lovers)
[7 Shall I compare thee to a summer’s day?]
8 Sweeter than roses
George Crumb
9 Three Early Songs: I Night
Henry Purcell
[10 They live unwoo’d, and unrespected fade]
11 From rosy bow’rs
[12 And so of you, beauteous and lovely youth]
13 Not all my torments
George Crumb
14 Three Early Songs: II Let it be forgotten
Henry Purcell
15 Celebrate this Festival! (Crown the altar)
[16 No longer mourn for me when I am dead]
George Crumb
17 Three Early Songs: III Wind Elegy
Henry Purcell
18 ******
19 Thy hand, Belinda…When I am laid in earth (Dido’s Lament)
George Crumb
20-28 Apparition
Elegiac Songs and Vocalises for soprano and amplified piano
Исполнители:
Christine Schäfer soprano
Eric Schneider piano

Лог создания рипа

Exact Audio Copy V1.0 beta 3 from 29. August 2011
EAC extraction logfile from 10. June 2014, 16:41
Christine Schäfer, Eric Schneider / Purcell - Songs; Crumb - Apparition
Used drive : HL-DT-STDVDRRW GWA-4164B Adapter: 5 ID: 0
Read mode : Secure
Utilize accurate stream : Yes
Defeat audio cache : Yes
Make use of C2 pointers : No
Read offset correction : 102
Overread into Lead-In and Lead-Out : No
Fill up missing offset samples with silence : Yes
Delete leading and trailing silent blocks : No
Null samples used in CRC calculations : Yes
Used interface : Native Win32 interface for Win NT & 2000
Used output format : User Defined Encoder
Selected bitrate : 896 kBit/s
Quality : High
Add ID3 tag : No
Command line compressor : C:\Program Files\Exact Audio Copy\FLAC\FLAC.EXE
Additional command line options : -V -8 %source%
TOC of the extracted CD
Track | Start | Length | Start sector | End sector
---------------------------------------------------------
1 | 0:00.00 | 0:55.33 | 0 | 4157
2 | 0:55.33 | 3:41.21 | 4158 | 20753
3 | 4:36.54 | 1:31.09 | 20754 | 27587
4 | 6:07.63 | 1:38.06 | 27588 | 34943
5 | 7:45.69 | 0:29.03 | 34944 | 37121
6 | 8:14.72 | 2:54.00 | 37122 | 50171
7 | 11:08.72 | 0:45.23 | 50172 | 53569
8 | 11:54.20 | 4:14.42 | 53570 | 72661
9 | 16:08.62 | 2:59.03 | 72662 | 86089
10 | 19:07.65 | 0:16.69 | 86090 | 87358
11 | 19:24.59 | 7:12.52 | 87359 | 119810
12 | 26:37.36 | 1:00.63 | 119811 | 124373
13 | 27:38.24 | 3:00.61 | 124374 | 137934
14 | 30:39.10 | 3:18.29 | 137935 | 152813
15 | 33:57.39 | 3:20.25 | 152814 | 167838
16 | 37:17.64 | 0:45.43 | 167839 | 171256
17 | 38:03.32 | 2:19.59 | 171257 | 181740
18 | 40:23.16 | 0:45.09 | 181741 | 185124
19 | 41:08.25 | 4:21.56 | 185125 | 204755
20 | 45:30.06 | 3:23.19 | 204756 | 219999
21 | 48:53.25 | 1:08.05 | 220000 | 225104
22 | 50:01.30 | 1:25.04 | 225105 | 231483
23 | 51:26.34 | 2:53.27 | 231484 | 244485
24 | 54:19.61 | 1:03.68 | 244486 | 249278
25 | 55:23.54 | 2:14.42 | 249279 | 259370
26 | 57:38.21 | 0:40.07 | 259371 | 262377
27 | 58:18.28 | 7:39.54 | 262378 | 296856
28 | 65:58.07 | 4:34.51 | 296857 | 317457
Range status and errors
Selected range
Filename D:\temp\Music\Purcell - Songs; Crumb - Apparition\Purcell - Songs; Crumb - Apparition.wav
Peak level 98.8 %
Extraction speed 3.7 X
Range quality 100.0 %
Test CRC 0FC1E793
Copy CRC 0FC1E793
Copy OK
No errors occurred
AccurateRip summary
Track 1 accurately ripped (confidence 10) [1187B704] (AR v2)
Track 2 accurately ripped (confidence 10) [DA9472D0] (AR v2)
Track 3 accurately ripped (confidence 10) [9EDE3629] (AR v2)
Track 4 accurately ripped (confidence 10) [8021845D] (AR v2)
Track 5 accurately ripped (confidence 10) [24113886] (AR v2)
Track 6 accurately ripped (confidence 10) [0DC79D0E] (AR v2)
Track 7 accurately ripped (confidence 10) [DD0E611C] (AR v2)
Track 8 accurately ripped (confidence 10) [4C31C57D] (AR v2)
Track 9 accurately ripped (confidence 10) [47BEE5F2] (AR v2)
Track 10 accurately ripped (confidence 10) [1731B5FC] (AR v2)
Track 11 accurately ripped (confidence 10) [122E32F7] (AR v2)
Track 12 accurately ripped (confidence 10) [178CEADB] (AR v2)
Track 13 accurately ripped (confidence 10) [25958A7E] (AR v2)
Track 14 accurately ripped (confidence 10) [DB51E977] (AR v2)
Track 15 accurately ripped (confidence 10) [2468DE7B] (AR v2)
Track 16 accurately ripped (confidence 10) [0C1C663E] (AR v2)
Track 17 accurately ripped (confidence 10) [115EE6BE] (AR v2)
Track 18 accurately ripped (confidence 10) [5DD77C0E] (AR v2)
Track 19 accurately ripped (confidence 10) [C9C60694] (AR v2)
Track 20 accurately ripped (confidence 10) [E597E2BA] (AR v2)
Track 21 accurately ripped (confidence 10) [BFE8EA8F] (AR v2)
Track 22 accurately ripped (confidence 10) [47B4B768] (AR v2)
Track 23 accurately ripped (confidence 10) [0831FE0E] (AR v2)
Track 24 accurately ripped (confidence 10) [3B314179] (AR v2)
Track 25 accurately ripped (confidence 10) [1B826BCC] (AR v2)
Track 26 accurately ripped (confidence 10) [6269910A] (AR v2)
Track 27 accurately ripped (confidence 10) [ED82B7D3] (AR v2)
Track 28 accurately ripped (confidence 10) [23937A2E] (AR v2)
All tracks accurately ripped
End of status report
==== Log checksum B7BD4F1788B744DDEB69A0E5FD10F66EF31F23DC78017E9EEFF66EB31ADAEB34 ====



Показать сообщения:    

Текущее время: 04-Дек 09:03

Часовой пояс: UTC + 3


Вы не можете начинать темы
Вы не можете отвечать на сообщения
Вы не можете редактировать свои сообщения
Вы не можете удалять свои сообщения
Вы не можете голосовать в опросах
Вы не можете прикреплять файлы к сообщениям
Вы не можете скачивать файлы