(Classical, vocal) Sandrine Piau, Susan Manoff - Apres un Reve (Strauss,Faure,Mendelssohn,Chausson,Bouchot,Poulenc,Britten) - 2011, FLAC (image+.cue) lossless


 

[Цитировать]

Sandrine Piau, Susan Manoff- Après un Rêve/After a Dream (Strauss,Faure,Mendelssohn,Chausson,Bouchot,Poulenc,Britten) Жанр: Classical, vocal
Страна-производитель диска: France
Год издания диска: 2011
Издатель (лейбл): Naïve
Номер по каталогу: V 5250
Дата записи: 06.2010
Аудиокодек: FLAC
Тип рипа: image+.cue
Битрейт аудио: lossless
Продолжительность: 0:58:40
Источник: JVA
Наличие сканов в содержимом раздачи: да
Треклист:
Richard Strauss (1864-1949)
01. Die Nacht opus 10/3 (2:50)
02. Das Geheimnis opus 17/3 (2:16)
03. Morgen! opus 27/4 (3:30)
Gabriel Faure (1845-1924)
04. Après un rêve opus 7/1 (2:30)
05. Clair de lune opus 46/2 (2:57)
06. Les Berceaux opus 23/1 (2:34)
Felix Mendelssohn-Bartholdy (1809-1847)
07. Nachtlied opus 71/6 (2:43)
08. Neue Liebe opus 19/4 (2:06)
09. Schlafloser Augen Leuchte (2:17)
10. Hexenlied opus 8/8 (2:20)
Ernest Chausson (1855-1899)
11. Amour d'antan opus 8/2 (3:00)
12. Dans la foret du charme et de I'enchantement opus 36/2 (2:40)
13. Les Heures opus 27/1 (2:52)
Vincent Bouchot b. 1966
Galgenlieder
14. Mondendinge (1:50)
15. Der Hecht (1:06)
16. Die Mitternachtsmaus (З:00)
17. Das Wasser (0:57)
18. Galgenkindes Wiegenlied (1:24)
Francis Poulenc (1899-1963)
19. Montparnasse (3:02)
20. Hyde Park (0;51)
21. «С» (3:08)
22. Fêtes galantes (1:00)
Benjamin Britten* (arrangement) (1913-1976)
23. The Salley Gardens (2:20)
24. There's None to Soothe (1:27)
25. I Wonder as I Wander (3:30)
Исполнители:
Sandrine Piau Soprano
Susan Manoff piano

Лог создания рипа

Exact Audio Copy V0.99 prebeta 5 from 4. May 2009
Отчёт EAC об извлечении, выполненном 22. июля 2014, 16:32
Sandrine Piau, Susan Manoff / Apres un reve
Дисковод: ATAPI iHAS124 E Adapter: 0 ID: 0
Режим чтения : Достоверность
Использование точного потока : Да
Отключение кэша аудио : Да
Использование указателей C2 : Нет
Коррекция смещения при чтении : 6
Способность читать области Lead-in и Lead-out : Нет
Заполнение пропущенных сэмплов тишиной : Да
Удаление блоков с тишиной в начале и конце : Нет
При вычислениях CRC использовались нулевые сэмплы : Да
Интерфейс : Встроенный Win32-интерфейс для Win NT/2000
Выходной формат : Пользовательский кодировщик
Выбранный битрейт : 768 kBit/s
Качество : Высокий
Добавление ID3-тэга : Нет
Утилита сжатия : C:\Program Files\Exact Audio Copy\Flac\flac.exe
Дополнительные параметры : -6 -V -T "ARTIST=%a" -T "TITLE=%t" -T "ALBUM=%g" -T "DATE=%y" -T "TRACKNUMBER=%n" -T "GENRE=%m" -T "COMMENT=%e" %s -o %d
TOC извлечённого CD
Трек | Старт | Длительность | Начальный сектор | Конечный сектор
---------------------------------------------------------------------
1 | 0:00.00 | 2:47.50 | 0 | 12574
2 | 2:47.50 | 2:24.00 | 12575 | 23374
3 | 5:11.50 | 3:42.05 | 23375 | 40029
4 | 8:53.55 | 2:07.25 | 40030 | 49579
5 | 11:01.05 | 2:47.02 | 49580 | 62106
6 | 13:48.07 | 2:16.08 | 62107 | 72314
7 | 16:04.15 | 2:29.35 | 72315 | 83524
8 | 18:33.50 | 1:56.55 | 83525 | 92279
9 | 20:30.30 | 2:14.05 | 92280 | 102334
10 | 22:44.35 | 2:14.00 | 102335 | 112384
11 | 24:58.35 | 2:42.50 | 112385 | 124584
12 | 27:41.10 | 2:28.02 | 124585 | 135686
13 | 30:09.12 | 2:51.50 | 135687 | 148561
14 | 33:00.62 | 1:57.45 | 148562 | 157381
15 | 34:58.32 | 1:12.60 | 157382 | 162841
16 | 36:11.17 | 2:36.55 | 162842 | 174596
17 | 38:47.72 | 1:05.38 | 174597 | 179509
18 | 39:53.35 | 2:42.27 | 179510 | 191686
19 | 42:35.62 | 3:13.73 | 191687 | 206234
20 | 45:49.60 | 0:48.45 | 206235 | 209879
21 | 46:38.30 | 2:49.62 | 209880 | 222616
22 | 49:28.17 | 0:58.15 | 222617 | 226981
23 | 50:26.32 | 2:23.05 | 226982 | 237711
24 | 52:49.37 | 1:27.63 | 237712 | 244299
25 | 54:17.25 | 4:23.47 | 244300 | 264071
Характеристики диапазона извлечения и сообщения об ошибках
Выбранный диапазон
Имя файла C:\EAC\Sandrine Piau Susan Manoff - Apres un reve\Sandrine Piau Susan Manoff - Apres un reve.wav
Пиковый уровень 100.0 %
Качество диапазона 100.0 %
CRC копии 97866BAA
Копирование... OK
Ошибок не произошло
AccurateRip: сводка
Трек 1 точность не определена (достоверность 12) [4A0ECB2E], AccurateRip вернул [BBCB1FB6]
Трек 2 точность не определена (достоверность 13) [1050445C], AccurateRip вернул [42968361]
Трек 3 точность не определена (достоверность 13) [664327C7], AccurateRip вернул [709F62C2]
Трек 4 точность не определена (достоверность 13) [1605B6BE], AccurateRip вернул [73834C20]
Трек 5 точность не определена (достоверность 13) [848A0BAA], AccurateRip вернул [334DA5E1]
Трек 6 точность не определена (достоверность 12) [D8EF3BBE], AccurateRip вернул [1700EB67]
Трек 7 точность не определена (достоверность 13) [11CC8E65], AccurateRip вернул [212908F5]
Трек 8 точность не определена (достоверность 13) [7B97C975], AccurateRip вернул [F11B6BDE]
Трек 9 точность не определена (достоверность 13) [A7DF08B7], AccurateRip вернул [DAC91628]
Трек 10 точность не определена (достоверность 13) [92E9626B], AccurateRip вернул [A5B81C51]
Трек 11 точность не определена (достоверность 12) [E72B9703], AccurateRip вернул [658680B6]
Трек 12 точность не определена (достоверность 13) [69F3F526], AccurateRip вернул [ED7B60D7]
Трек 13 точность не определена (достоверность 13) [E1A32315], AccurateRip вернул [508D173E]
Трек 14 точность не определена (достоверность 13) [E849CCA5], AccurateRip вернул [7363B9F4]
Трек 15 точность не определена (достоверность 13) [BA63F754], AccurateRip вернул [0B130480]
Трек 16 точность не определена (достоверность 13) [59182CDD], AccurateRip вернул [4C5B5CF8]
Трек 17 точность не определена (достоверность 13) [CE3C6096], AccurateRip вернул [7EFCD6DE]
Трек 18 точность не определена (достоверность 13) [AA347238], AccurateRip вернул [A0F01D6B]
Трек 19 точность не определена (достоверность 13) [1F9C02A6], AccurateRip вернул [24F114AF]
Трек 20 точность не определена (достоверность 13) [4D1F0C84], AccurateRip вернул [03C692FD]
Трек 21 точность не определена (достоверность 13) [CA57AE76], AccurateRip вернул [6B5A9732]
Трек 22 точность не определена (достоверность 13) [7EA7CD76], AccurateRip вернул [4BF1C0BF]
Трек 23 точность не определена (достоверность 13) [3D2C1F5C], AccurateRip вернул [8FCFDA47]
Трек 24 точность не определена (достоверность 13) [0B6FC65A], AccurateRip вернул [C8D6EE6F]
Трек 25 точность не определена (достоверность 13) [24833198], AccurateRip вернул [C45C4FA9]
Ни один трек не прошёл проверки на точность
В вашей базе может быть иной вариант штамповки диска
Конец отчёта

Лог проверки качества


Скриншот спектра частот




Показать сообщения:    

Текущее время: 05-Дек 13:27

Часовой пояс: UTC + 3


Вы не можете начинать темы
Вы не можете отвечать на сообщения
Вы не можете редактировать свои сообщения
Вы не можете удалять свои сообщения
Вы не можете голосовать в опросах
Вы не можете прикреплять файлы к сообщениям
Вы не можете скачивать файлы