(Concerto) Гейр Твейт - Фортепианные концерты № 1 & № 4 "Северное сияние"; Черепаха / Geirr Tveitt - Piano Concertos №№ 1 & 4, The Turtle (Hakon Austbo, S.Bjelland, I.Kosmo, Stavanger SO, O.Ruud) - 2004, FLAC (tracks+.cue) lossless


Статистика раздачи [Обновить пиров]
Размер:  305 MB   |    Зарегистрирован:  8 месяцев 20 дней   |    Скачан:  0 раз

Полного источника не было: Никогда

Личеров:  3  [  0 KB/s  ]   Подробная статистика пиров
 
   
 
 
 

[Цитировать]

Geirr Tveitt - Piano Concertos Nos. 1 & 4 "Aurora Borealis", The Turtle
Жанр: Concerto
Страна-производитель диска: Sweden
Год издания диска: 2004
Издатель (лейбл): BIS
Номер по каталогу: CD-1397
Дата записи: 2001-2003
Аудиокодек: FLAC
Тип рипа: tracks+.cue
Битрейт аудио: lossless
Продолжительность: 81'13
Источник: скачано с
Наличие сканов в содержимом раздачи: да
Треклист:
Geirr Tveitt (1908-1981)
Concerto № 1 for Piano and Orchestra, in Lydian mod, op. 5 (1928) 21'49
01 I. Tranquillo (7:25)
02 II. Giocoso (5:18)
03 III. Lento (9:14)
04 The Turtle for Mezzo-Soprano and Orchestra, text from "The Grapes of Wrath" by John Steinbeck (1953) (29:08)
Concerto № 4 for Piano and Orchestra, 'Northern Lights', op. 130 (1947) 30'04
05 I. The Northern Lights Rise Over a Palette of Autumn Colours (12:54)
06 II. Sparkle in the Winter Sky and (8:15)
07 III. Sail Away in the Spring Night. (8:59)
Исполнители:
Sveinung Bjelland, piano (1-3)
Håkon Austbø, piano (5-7)
Ingebjørg Kosmo, mezzo-soprano (4)
Stavanger Symphony Orchestra
Ole Kristian Ruud, conductor

Лог создания рипа

Exact Audio Copy V1.0 beta 3 from 29. August 2011
EAC extraction logfile from 25. November 2013, 11:17
Sveinung Bjelland Hakon Austbö (piano), Ingebjorg Kosmo (mezzo), Stavanger Symphony Orchestra, Ole Kristian Ruud / Piano Concertos Nos. 1 & 4; The Turtle
Used drive : SONY CDRWDVD CRX310EE Adapter: 2 ID: 0
Read mode : Secure
Utilize accurate stream : Yes
Defeat audio cache : Yes
Make use of C2 pointers : No
Read offset correction : 6
Overread into Lead-In and Lead-Out : No
Fill up missing offset samples with silence : Yes
Delete leading and trailing silent blocks : No
Null samples used in CRC calculations : Yes
Used interface : Installed external ASPI interface
Gap handling : Appended to previous track
Used output format : User Defined Encoder
Selected bitrate : 1024 kBit/s
Quality : High
Add ID3 tag : No
Command line compressor : C:\Program Files\Exact Audio Copy\Flac\flac.exe
Additional command line options : -8 -V -T "ARTIST=%artist%" -T "TITLE=%title%" -T "ALBUM=%albumtitle%" -T "DATE=%year%" -T "TRACKNUMBER=%tracknr%" -T "GENRE=%genre%" -T "PERFORMER=%albuminterpret%" -T "COMPOSER=%composer%" %haslyrics%--tag-from-file=LYRICS="%lyricsfile%"%haslyrics% -T "ALBUMARTIST=%albumartist%" -T "DISCNUMBER=%cdnumber%" -T "TOTALDISCS=%totalcds%" -T "TOTALTRACKS=%numtracks%" -T "COMMENT=%comment%" %source% -o %dest%
TOC of the extracted CD
Track | Start | Length | Start sector | End sector
---------------------------------------------------------
1 | 0:00.00 | 7:25.72 | 0 | 33446
2 | 7:25.72 | 5:18.30 | 33447 | 57326
3 | 12:44.27 | 9:14.60 | 57327 | 98936
4 | 21:59.12 | 29:08.53 | 98937 | 230089
5 | 51:07.65 | 12:54.62 | 230090 | 288201
6 | 64:02.52 | 8:15.28 | 288202 | 325354
7 | 72:18.05 | 8:59.70 | 325355 | 365849
Track 1
Filename C:\users\EAC\Geirr Tveitt - Piano Concertos Nos. 1 & 4 - The Turtle (2004) [FLAC]\01 - Tveitt - Piano Concerto No.1, op.5 - I. Tranquillo.wav
Pre-gap length 0:00:02.00
Peak level 34.9 %
Extraction speed 2.4 X
Track quality 100.0 %
Test CRC 81148AEB
Copy CRC 81148AEB
Accurately ripped (confidence 2) [F87D0B4B] (AR v2)
Copy OK
Track 2
Filename C:\users\EAC\Geirr Tveitt - Piano Concertos Nos. 1 & 4 - The Turtle (2004) [FLAC]\02 - Tveitt - Piano Concerto No.1, op.5 - II. Giocoso.wav
Peak level 63.4 %
Extraction speed 2.4 X
Track quality 99.9 %
Test CRC 66B75B92
Copy CRC 66B75B92
Accurately ripped (confidence 2) [8839D248] (AR v2)
Copy OK
Track 3
Filename C:\users\EAC\Geirr Tveitt - Piano Concertos Nos. 1 & 4 - The Turtle (2004) [FLAC]\03 - Tveitt - Piano Concerto No.1, op.5 - III. Lento.wav
Peak level 55.6 %
Extraction speed 3.0 X
Track quality 100.0 %
Test CRC 74014DD0
Copy CRC 74014DD0
Accurately ripped (confidence 2) [9FAAECFC] (AR v2)
Copy OK
Track 4
Filename C:\users\EAC\Geirr Tveitt - Piano Concertos Nos. 1 & 4 - The Turtle (2004) [FLAC]\04 - Tveitt - The Turtle (for mezzo-soprano and orchestra).wav
Peak level 79.4 %
Extraction speed 3.9 X
Track quality 100.0 %
Test CRC 07A98B41
Copy CRC 07A98B41
Accurately ripped (confidence 2) [E2884383] (AR v2)
Copy OK
Track 5
Filename C:\users\EAC\Geirr Tveitt - Piano Concertos Nos. 1 & 4 - The Turtle (2004) [FLAC]\05 - Tveitt - Piano Concerto No.4, op.130 ''The Northern Lights'' - I. ... rise over a palette of autumn colours.wav
Peak level 98.1 %
Extraction speed 4.4 X
Track quality 100.0 %
Test CRC A0011BDB
Copy CRC A0011BDB
Accurately ripped (confidence 2) [A52E7E9B] (AR v2)
Copy OK
Track 6
Filename C:\users\EAC\Geirr Tveitt - Piano Concertos Nos. 1 & 4 - The Turtle (2004) [FLAC]\06 - Tveitt - Piano Concerto No.4, op.130 ''The Northern Lights'' - II. sparkle in the winter sky and ....wav
Peak level 93.0 %
Extraction speed 4.6 X
Track quality 100.0 %
Test CRC 810AFDC0
Copy CRC 810AFDC0
Accurately ripped (confidence 2) [44C57E02] (AR v2)
Copy OK
Track 7
Filename C:\users\EAC\Geirr Tveitt - Piano Concertos Nos. 1 & 4 - The Turtle (2004) [FLAC]\07 - Tveitt - Piano Concerto No.4, op.130 ''The Northern Lights'' - III. sail away in the spring night..wav
Peak level 87.8 %
Extraction speed 4.8 X
Track quality 100.0 %
Test CRC E3E17A85
Copy CRC E3E17A85
Accurately ripped (confidence 2) [4DDCA471] (AR v2)
Copy OK
All tracks accurately ripped
No errors occurred
End of status report
==== Log checksum AEE57D0749245822DF6BD86C8792FC7087384D5CFE3103B4C9E16B36206D4FC0 ====

Содержание индексной карты (.CUE)

REM GENRE Classical
REM DATE 2004
REM DISCID 5B130E07
REM COMMENT "ExactAudioCopy v1.0b3"
FILE "01 - Tveitt - Piano Concerto No.1, op.5 - I. Tranquillo.wav" WAVE
TRACK 01 AUDIO
ISRC SEAEN0497010
INDEX 01 00:00:00
FILE "02 - Tveitt - Piano Concerto No.1, op.5 - II. Giocoso.wav" WAVE
TRACK 02 AUDIO
ISRC SEAEN0497020
INDEX 01 00:00:00
FILE "03 - Tveitt - Piano Concerto No.1, op.5 - III. Lento.wav" WAVE
TRACK 03 AUDIO
ISRC SEAEN0497030
INDEX 01 00:00:00
FILE "04 - Tveitt - The Turtle (for mezzo-soprano and orchestra).wav" WAVE
TRACK 04 AUDIO
ISRC SEAEN0497040
INDEX 01 00:00:00
FILE "05 - Tveitt - Piano Concerto No.4, op.130 ''The Northern Lights'' - I. ... rise over a palette of autumn colours.wav" WAVE
TRACK 05 AUDIO
ISRC SEAEN0497050
INDEX 01 00:00:00
FILE "06 - Tveitt - Piano Concerto No.4, op.130 ''The Northern Lights'' - II. sparkle in the winter sky and ....wav" WAVE
TRACK 06 AUDIO
ISRC SEAEN0497060
INDEX 01 00:00:00
FILE "07 - Tveitt - Piano Concerto No.4, op.130 ''The Northern Lights'' - III. sail away in the spring night..wav" WAVE
TRACK 07 AUDIO
ISRC SEAEN0497070
INDEX 01 00:00:00
Доп. информация: Первый фортепианный концерт Твейта, "Концерт в лидийском ладу" (1928), был написан в Лейпциге и там же состоялась его премьера 5 июня 1931 года. Это поразительно зрелая работа для 20-летнего студента едва обучившегося композиции. Открывающая концерт мелодия - одна из удачнейших его находок, она генерирует все последующие мотивы 1й части. Скерцо построено на мелодии народного характера в духе Спрингара или Гангара (норвежских танцев). Финал - своего рода зеркальное отражение первой части, мастерски разработанный мотив неуклонно движется к григовско-рахманиновской восторженно-лирической кульминации.
Четвёртый фортепианный концерт, “Северное сияние”, op. 130 (1947) - одно из самых известных сочинений композитора, фактически симфоническая поэма в трех движениях, чем то напоминающая "Ночи в Садах Испании" де Фальи - то же таинственное настроение, те же самые люминесцентные инструментальные структуры, однако вместо тонких импрессионистских цветов, которыми пользовались французы и испанцы, Твейт предлагает свой северный вариант - более бурные и смелые ритмы и гармонии, характерные для норвежской музыки. Это сочинение интересно как попытка изобразить средствами музыки необычное природное явление - северное сияние - Aurora Borealis, которое заливает ночной небосвод яркими красками, движется и как будто танцует в небе. Каждая часть концерта имеет подзаголовки, собственно живописующие процесс: I. Осеннее пробуждение Северного сияния; II. Сверкание в зимних небесах; и III. Исчезновение весенней ночью. Концерт был исполнен автором в Париже в 1947 году и вызвал у парижской публики экстаз. Твейтовские интерпретации насыщенных, навеянных импрессионистами, круговертей северных огней заслужили ему признание его бывшего учителя – знаменитой Буланже – она назвала его музыку “глотком свежего норвежского воздуха”.
Черепаха, для меццо-сопрано и оркестра (1953) - масштабное вокально-симфоническое произведение на текст из 3й главы "Гроздьев Гнева" Джона Стейнбека. Твейт выбрал прозаический текст Стейнбека, чтобы положить его на музыку не случайно - ситуация с неунывающей черепахой на автостраде, вероятно отражала его собственное положение непризнанного и критикуемого на родине композитора. Сольная партия была написан для мощного голоса Кирстен Флагстадт.

Черепаха

Вдоль бетонированного шоссе тянулась кромка густой высохшей травы,
и стебельки ее клонились к земле, - овсюг поджидал первую пробегающую
мимо собаку, чтобы зацепиться усиками за ее шерсть, лисохвост - первую
лошадь, чтобы стряхнуть свои семена ей на гриву, клевер - первую овцу,
чтобы она унесла его щетинки на своей шубе. Спящая жизнь ждала, когда
ее развеют, разнесут во все стороны, и каждое семечко было вооружено
особым приспособлением для такого путешествия: ножкой, похожей на
изогнутый дротик, парашютом, маленьким копьем или крохотной колючкой, -
и все это поджидало животных или ветра, отворота на мужских брюках или
подола женской юбки - поджидало терпеливо, но настороженно, поджидало
спокойно, тихо, но в полной готовности к передвижению.
Лучи солнца падали на траву и грели ее, а в тени между стебельками
сновали насекомые - муравьи и подстерегающие их муравьиные львы,
суетливые, похожие на маленьких армадилл, сороконожки, кузнечики,
которые то и дело взвивались в воздух, сверкая желтоватыми крылышками.
А вдоль дороги, поворачивая голову то вправо, то влево, волочила по
траве свой выпуклый панцирь черепаха. Ее жесткие лапы с желтоватыми
когтями медленно ступали по траве, вернее - продирались сквозь траву,
таща на себе тяжелый панцирь. Ячменные семена скользили по нему,
ворсинки клевера падали на него и скатывались на землю. Роговой клюв у
черепахи был чуть приоткрыт, глаза пронзительным, насмешливым взглядом
смотрели на дорогу из-за жестких надбровных дуг. Позади нее оставалась
полоса примятой травы, впереди вставала дорожная насыпь, казавшаяся ей
высоким холмом. Она остановилась, подняв голову, прищурилась,
посмотрела вверх, потом вниз и двинулась дальше. Передние когтистые
лапы вытянулись одна за другой, но черепаха тотчас же убрала их.
Заработали задние, панцирь подался вверх, с травы на гравий. Чем круче
насыпь, тем резче становились движения черепахи. Задние лапы скользили,
обрывались, подталкивая панцирь, длинная шея с чешуйчатой головой была
вытянута до предела. Мало-помалу панцирь одолел дорожную насыпь и
подобрался вплотную к бетонному борту вышиной в четыре дюйма, который
пересекал ему путь. Задние лапы, словно действуя независимо от всего
тела, двинули его выше. Шея вытянулась, и черепаха заглянула через борт
на широкую гладь шоссе. Потом на борт легли передние лапы, они
напряглись, и панцирь медленно подтянулся кверху. Черепаха отдыхала.
Рыжий муравей пробрался между панцирем и нижним щитком, щекотнул нежную
кожу, и вдруг голова и ноги черепахи спрятались, чешуйчатый хвост ушел
вбок, под панцирь. Рыжий муравей лежал, раздавленный, между лапой и
брюшком. А колос овсюга, приставший к передней лапе, тоже очутился под
панцирем. Долгое время черепаха лежала неподвижно, потом из-под
верхнего щитка показалась длинная шея, насмешливые старческие глаза
посмотрели по сторонам, а вслед за этим выглянули наружу ноги и хвост.
Задние ноги пришли в движение, напружились, как у слона, и вот панцирь
подался кверху, так что передние ноги оторвались от борта шоссе. Но
задние подталкивали панцирь все выше и выше, центр тяжести
переместился. передняя часть туловища скользнула вниз, когти царапнули
по бетону, и черепаха стала на шоссе. А колос овсюга, обвившийся вокруг
ее передних лап, так и застрял там.
Теперь идти было легче, и за работу принялись все четыре ноги;
панцирь двигался вперед, покачиваясь из стороны в сторону. На шоссе
показалась машина, за рулем которой сидела пожилая женщина. Она
заметила черепаху и круто свернула вправо. Шины взвизгнули, подняв
облако пыли. Два колеса на секунду оторвались от земли и тут же стали
обратно. Машина пошла дальше, но уже гораздо медленнее. Черепаха,
спрятавшая было голову и ноги, теперь заторопилась, потому что
раскаленный бетон обжигал се, точно огнем.
Через минуту-другую впереди показался небольшой грузовик, и когда
он подъехал ближе, шофер увидел черепаху и свернул прямо на нее.
Переднее колесо чиркнуло по краю панциря, подкинуло черепаху вверх,
точно костяную фишку, завертело, точно монету, и сбросило с шоссе. А
грузовик опять выехал на правую сторону дороги. Черепаха долго лежала
на спине, не высовывая наружу ни головы, ни ног. Наконец ноги
вытянулись в воздух, ища опоры. Передняя нащупала кусок кварца, и
мало-помалу черепаха перевернулась спиной кверху. Колос овсюга
отцепился от лап, и из него выпали три остроконечных семечка. А брюшной
щит черепахи, спускавшейся теперь вниз по насыпи, прикрыл их слоем
земли. Черепаха выбралась на проселочную дорогу и заковыляла по мягкому
слою пыли, оставляя за собой волнистый след. Насмешливые старческие
глаза смотрели прямо вперед, роговой клюв был полуоткрыт. Лапы с
желтоватыми когтями чуть разъезжались в пыли.
[teatrix.ru].t18962.torrent 
Торрент: Зарегистрирован [ 2016-03-18 12:27 ] · 218202B0E039D6F2F572EDDBAA2878C9C41C67D3

Скачать .torrent

Скачать

13 KB

Статус: проверено
Скачан: 0 раз
Размер: 305 MB
terms.php



Быстрый ответ

Имя:

      
Для отправки сообщений необходимо включить JavaScript
Показать сообщения:    

Текущее время: 07-Дек 13:38

Часовой пояс: UTC + 3


Вы можете начинать темы
Вы можете отвечать на сообщения
Вы не можете редактировать свои сообщения
Вы не можете удалять свои сообщения
Вы не можете голосовать в опросах
Вы не можете прикреплять файлы к сообщениям
Вы можете скачивать файлы