(Classical) Бородин – Секстет; Глазунов – Квинтет; Аренский – Струнный квартет № 2 (оригинальная версия) / Borodin, Glazunov, Arensky – Chamber music (The Nash Ensemble: Thorsen, Samuel, Power, Dukes, Watkins, Neary)- 2012, FLAC (image+.cue) lossless


 

[Цитировать]

Бородин – Секстет; Глазунов – Квинтет; Аренский – Струнный квартет № 2 (оригинальная версия) / Borodin, Glazunov, Arensky – Chamber music (The Nash Ensemble: Thorsen, Samuel, Power, Dukes, Watkins, Neary)
Жанр: Classical
Страна-производитель диска: ЕС
Год издания диска: 2012
Издатель (лейбл): onyx
Номер по каталогу: ONYX 4067
Дата записи: 27 февраля — 1 марта 2011 г., Поттон-Холл (Саффолк).
Аудиокодек: FLAC
Тип рипа: image+.cue
Битрейт аудио: lossless
Продолжительность: 01:05:41
Источник: odeonmusic
Наличие сканов в содержимом раздачи: да
Треклист:
Александр Порфирьевич Бородин (1833 — 1887).
Секстет d-moll для двух скрипок, двух альтов и двух виолончелей (1860 — 1861, окончание утрачено).
01. I. Allegro [05:38].
02. II. Andante [03:47].
Александр Константинович Глазунов (1865 — 1936).
Квинтет A-dur для двух скрипок, альта и двух виолончелей, op. 39 (1891 — 1892).
03. I. Allegro. — Coda. Poco animato [08:09].
04. II. Scherzo. Allegro moderato. — Poco meno mosso. — Allegro. — Tempo I. — Coda. Animando poco a poco. — Poco più sostenuto. — A tempo [05:54].
05. III. [Introduzione.] Andante sostenuto. — Andante mosso. — [Coda.] A tempo, tranquillo [07:24].
06. IV. Finale. Allegro moderato. — [Coda.] Più mosso. Allegro vivo. — Grazioso. — Presto. — Prestissimo [07:15].
Антон (Антоний) Степанович Аренский (1861 — 1906).
Струнный квартет № 2 a-moll для скрипки, альта и двух виолончелей, op. 35 (1894).
07. I. Moderato [10:34].
08. II. Вариации на тему Чайковского [12:02].
(08.) Тема. Moderato. —
(09.) — Вариация I. Un poco più mosso. —
(10.) — Вариация II. Allegro non troppo. —
(11.) — Вариация III. Andantino tranquillo. —
(12.) — Вариация IV. Vivace. —
(13.) — Вариация V. Andante. —
(14.) — Вариация VI. Allegro con spirito. —
(15.) — Вариация VII. Andante con moto. —
(16.) — Кода. Moderato. — Poco più mosso. — Moderato.
09. III. Finale. Andante sostenuto. — Allegro moderato [04:09].
Исполнители:
The Nash Ensemble:
Marianne Thorsen (скрипка),
Laura Samuel (скрипка, 1 — 6),
Lawrence Power (альт),
Philip Dukes (альт, 1 — 2),
Paul Watkins (виолончель),
Alice Neary (виолончель).

Лог создания рипа

Exact Audio Copy V1.0 beta 3 from 29. August 2011
EAC extraction logfile from 23. September 2013, 12:36
Nash Ensemble / Borodin, Glazunov, Arensky - Chamber Works - The Nash Ensemble
Used drive : TSSTcorpCDDVDW SH-222BB Adapter: 2 ID: 1
Read mode : Secure
Utilize accurate stream : Yes
Defeat audio cache : Yes
Make use of C2 pointers : No
Read offset correction : 6
Overread into Lead-In and Lead-Out : No
Fill up missing offset samples with silence : Yes
Delete leading and trailing silent blocks : No
Null samples used in CRC calculations : Yes
Used interface : Native Win32 interface for Win NT & 2000
Used output format : User Defined Encoder
Selected bitrate : 1024 kBit/s
Quality : High
Add ID3 tag : No
Command line compressor : C:\Program Files\Exact Audio Copy\Flac\flac.exe
Additional command line options : -8 -V -T "TITLE=%title%" -T "ARTIST=%artist%" -T "ALBUMARTIST=%albumartist%" -T "ALBUM=%albumtitle%" -T "DATE=%year%" -T "TRACKNUMBER=%tracknr%" -T "TRACKTOTAL=%numtracks%" -T "GENRE=%genre%" -T "COMMENT=%comment%" -T "PERFORMER=%albuminterpret%" -T "COMPOSER=%composer%" %source% -o %dest%
TOC of the extracted CD
Track | Start | Length | Start sector | End sector
---------------------------------------------------------
1 | 0:00.00 | 5:44.33 | 0 | 25832
2 | 5:44.33 | 3:58.27 | 25833 | 43709
3 | 9:42.60 | 8:12.13 | 43710 | 80622
4 | 17:54.73 | 5:57.24 | 80623 | 107421
5 | 23:52.22 | 7:28.37 | 107422 | 141058
6 | 31:20.59 | 7:25.70 | 141059 | 174503
7 | 38:46.54 | 10:37.64 | 174504 | 222342
8 | 49:24.43 | 12:03.55 | 222343 | 276622
9 | 61:28.23 | 4:13.24 | 276623 | 295621
Range status and errors
Selected range
Filename G:\Ripped general\[8525] Borodin, Glazunov, Arensky – Chamber Works – The Nash Ensemble\Borodin, Glazunov, Arensky - Chamber Works - The Nash Ensemble.wav
Peak level 99.9 %
Extraction speed 7.1 X
Range quality 100.0 %
Test CRC 5378D926
Copy CRC 5378D926
Copy OK
No errors occurred
AccurateRip summary
Track 1 accurately ripped (confidence 1) [44DFF494] (AR v1)
Track 2 accurately ripped (confidence 1) [FED2A0BD] (AR v1)
Track 3 accurately ripped (confidence 1) [B4E6AFD5] (AR v1)
Track 4 accurately ripped (confidence 1) [7FCC38C9] (AR v1)
Track 5 accurately ripped (confidence 1) [AB071703] (AR v1)
Track 6 accurately ripped (confidence 1) [4CC5F50D] (AR v1)
Track 7 accurately ripped (confidence 1) [DA523C45] (AR v1)
Track 8 accurately ripped (confidence 1) [71A4DB30] (AR v1)
Track 9 accurately ripped (confidence 1) [50D09C23] (AR v1)
All tracks accurately ripped
End of status report

Содержание индексной карты (.CUE)

REM GENRE "Chamber Music"
REM DATE 2012
REM DISCID 850F6509
REM COMMENT "ExactAudioCopy v1.0b3"
PERFORMER "The Nash Ensemble"
TITLE "Borodin, Glazunov, Arensky – Chamber Works – The Nash Ensemble"
FILE "Borodin, Glazunov, Arensky – Chamber Works – The Nash Ensemble.flac" WAVE
TRACK 01 AUDIO
TITLE "Borodin - String Sextet in D minor - I. Allegro"
PERFORMER "The Nash Ensemble"
INDEX 01 00:00:00
TRACK 02 AUDIO
TITLE "Borodin - String Sextet in D minor - II. Andante"
PERFORMER "The Nash Ensemble"
INDEX 01 05:44:33
TRACK 03 AUDIO
TITLE "Glazunov - String Quintet in A major, Op. 39 - I. Allegro"
PERFORMER "The Nash Ensemble"
INDEX 01 09:42:60
TRACK 04 AUDIO
TITLE "Glazunov - String Quintet in A major, Op. 39 - II. Scherzo. Allegro moderato"
PERFORMER "The Nash Ensemble"
INDEX 01 17:54:73
TRACK 05 AUDIO
TITLE "Glazunov - String Quintet in A major, Op. 39 - III. Andante sostenuto"
PERFORMER "The Nash Ensemble"
INDEX 01 23:52:22
TRACK 06 AUDIO
TITLE "Glazunov - String Quintet in A major, Op. 39 - IV. Finale. Allegro moderato"
PERFORMER "The Nash Ensemble"
INDEX 01 31:20:59
TRACK 07 AUDIO
TITLE "Arensky - String Quartet No. 2 in A minor, Op. 35 - I. Moderato"
PERFORMER "The Nash Ensemble"
INDEX 01 38:46:54
TRACK 08 AUDIO
TITLE "Arensky - String Quartet No. 2 in A minor, Op. 35 - II. Theme and Variations"
PERFORMER "The Nash Ensemble"
INDEX 01 49:24:43
TRACK 09 AUDIO
TITLE "Arensky - String Quartet No. 2 in A minor, Op. 35 - III. Finale. Andante sostenuto - Allegro moderato"
PERFORMER "The Nash Ensemble"
INDEX 01 61:28:23

Вариант индексной карты (.CUE) с выставленными зазорами

REM GENRE "Chamber Music"
REM DATE 2012
REM DISCID 850F6509
REM COMMENT "ExactAudioCopy v1.0b3"
PERFORMER "The Nash Ensemble"
TITLE "Borodin, Glazunov, Arensky – Chamber Works – The Nash Ensemble"
FILE "Borodin, Glazunov, Arensky – Chamber Works – The Nash Ensemble.flac" WAVE
TRACK 01 AUDIO
TITLE "Borodin - String Sextet in D minor - I. Allegro"
PERFORMER "The Nash Ensemble"
INDEX 01 00:00:00
TRACK 02 AUDIO
TITLE "Borodin - String Sextet in D minor - II. Andante"
PERFORMER "The Nash Ensemble"
INDEX 00 05:42:48
INDEX 01 05:44:33
TRACK 03 AUDIO
TITLE "Glazunov - String Quintet in A major, Op. 39 - I. Allegro"
PERFORMER "The Nash Ensemble"
INDEX 00 09:35:23
INDEX 01 09:42:60
TRACK 04 AUDIO
TITLE "Glazunov - String Quintet in A major, Op. 39 - II. Scherzo. Allegro moderato"
PERFORMER "The Nash Ensemble"
INDEX 00 17:53:46
INDEX 01 17:54:73
TRACK 05 AUDIO
TITLE "Glazunov - String Quintet in A major, Op. 39 - III. Andante sostenuto"
PERFORMER "The Nash Ensemble"
INDEX 00 23:51:18
INDEX 01 23:52:22
TRACK 06 AUDIO
TITLE "Glazunov - String Quintet in A major, Op. 39 - IV. Finale. Allegro moderato"
PERFORMER "The Nash Ensemble"
INDEX 00 31:19:26
INDEX 01 31:20:59
TRACK 07 AUDIO
TITLE "Arensky - String Quartet No. 2 in A minor, Op. 35 - I. Moderato"
PERFORMER "The Nash Ensemble"
INDEX 00 38:38:08
INDEX 01 38:46:54
TRACK 08 AUDIO
TITLE "Arensky - String Quartet No. 2 in A minor, Op. 35 - II. Theme and Variations"
PERFORMER "The Nash Ensemble"
INDEX 01 49:24:43
TRACK 09 AUDIO
TITLE "Arensky - String Quartet No. 2 in A minor, Op. 35 - III. Finale. Andante sostenuto - Allegro moderato"
PERFORMER "The Nash Ensemble"
INDEX 01 61:28:23
INDEX 02 65:35:63

Вариант индексной карты (.CUE) с выставленными зазорами и разделением Вариаций на тему Чайковского на отдельные треки

REM GENRE "Chamber Music"
REM DATE 2012
REM DISCID 850F6509
REM COMMENT "ExactAudioCopy v1.0b3"
PERFORMER "The Nash Ensemble"
TITLE "Borodin, Glazunov, Arensky – Chamber Works – The Nash Ensemble"
FILE "Borodin, Glazunov, Arensky – Chamber Works – The Nash Ensemble.flac" WAVE
TRACK 01 AUDIO
TITLE "Borodin - String Sextet in D minor - I. Allegro"
PERFORMER "The Nash Ensemble"
INDEX 01 00:00:00
TRACK 02 AUDIO
TITLE "Borodin - String Sextet in D minor - II. Andante"
PERFORMER "The Nash Ensemble"
INDEX 00 05:42:48
INDEX 01 05:44:33
TRACK 03 AUDIO
TITLE "Glazunov - String Quintet in A major, Op. 39 - I. Allegro"
PERFORMER "The Nash Ensemble"
INDEX 00 09:35:23
INDEX 01 09:42:60
TRACK 04 AUDIO
TITLE "Glazunov - String Quintet in A major, Op. 39 - II. Scherzo. Allegro moderato"
PERFORMER "The Nash Ensemble"
INDEX 00 17:53:46
INDEX 01 17:54:73
TRACK 05 AUDIO
TITLE "Glazunov - String Quintet in A major, Op. 39 - III. Andante sostenuto"
PERFORMER "The Nash Ensemble"
INDEX 00 23:51:18
INDEX 01 23:52:22
TRACK 06 AUDIO
TITLE "Glazunov - String Quintet in A major, Op. 39 - IV. Finale. Allegro moderato"
PERFORMER "The Nash Ensemble"
INDEX 00 31:19:26
INDEX 01 31:20:59
TRACK 07 AUDIO
TITLE "Arensky - String Quartet No. 2 in A minor, Op. 35 - I. Moderato"
PERFORMER "The Nash Ensemble"
INDEX 00 38:38:08
INDEX 01 38:46:54
TRACK 08 AUDIO
TITLE "Arensky - String Quartet No. 2 in A minor, Op. 35 - II. Theme and Variations - Theme -"
PERFORMER "The Nash Ensemble"
INDEX 01 49:24:43
TRACK 09 AUDIO
TITLE "Arensky - String Quartet No. 2 in A minor, Op. 35 - II. Theme and Variations - Var. I -"
PERFORMER "The Nash Ensemble"
INDEX 01 50:22:73
TRACK 10 AUDIO
TITLE "Arensky - String Quartet No. 2 in A minor, Op. 35 - II. Theme and Variations - Var. II -"
PERFORMER "The Nash Ensemble"
INDEX 01 51:39:12
TRACK 11 AUDIO
TITLE "Arensky - String Quartet No. 2 in A minor, Op. 35 - II. Theme and Variations - Var. III -"
PERFORMER "The Nash Ensemble"
INDEX 01 52:38:28
TRACK 12 AUDIO
TITLE "Arensky - String Quartet No. 2 in A minor, Op. 35 - II. Theme and Variations - Var. IV -"
PERFORMER "The Nash Ensemble"
INDEX 01 53:57:19
TRACK 13 AUDIO
TITLE "Arensky - String Quartet No. 2 in A minor, Op. 35 - II. Theme and Variations - Var. V -"
PERFORMER "The Nash Ensemble"
INDEX 01 55:18:61
TRACK 14 AUDIO
TITLE "Arensky - String Quartet No. 2 in A minor, Op. 35 - II. Theme and Variations - Var. VI -"
PERFORMER "The Nash Ensemble"
INDEX 01 57:25:65
TRACK 15 AUDIO
TITLE "Arensky - String Quartet No. 2 in A minor, Op. 35 - II. Theme and Variations - Var. VII -"
PERFORMER "The Nash Ensemble"
INDEX 01 58:33:38
TRACK 16 AUDIO
TITLE "Arensky - String Quartet No. 2 in A minor, Op. 35 - II. Theme and Variations - Coda"
PERFORMER "The Nash Ensemble"
INDEX 01 59:45:28
TRACK 17 AUDIO
TITLE "Arensky - String Quartet No. 2 in A minor, Op. 35 - III. Finale. Andante sostenuto - Allegro moderato"
PERFORMER "The Nash Ensemble"
INDEX 01 61:28:23
INDEX 02 65:35:63



Показать сообщения:    

Текущее время: 03-Дек 18:41

Часовой пояс: UTC + 3


Вы не можете начинать темы
Вы не можете отвечать на сообщения
Вы не можете редактировать свои сообщения
Вы не можете удалять свои сообщения
Вы не можете голосовать в опросах
Вы не можете прикреплять файлы к сообщениям
Вы не можете скачивать файлы