(Classical) Чайковский, Аренский – Фортепианные трио / Tchaikovsky & Arensky – Piano Trios (Trio Wanderer: Phillips-Varjabedian, Pidoux, Coq) - 2013, FLAC (image+.cue) lossless


 

[Цитировать]

Чайковский, Аренский – Фортепианные трио / Tchaikovsky & Arensky – Piano Trios (Trio Wanderer: Phillips-Varjabédian, Pidoux, Coq)
Жанр: Classical
Страна-производитель диска: Австрия
Год издания диска: 2013
Издатель (лейбл): harmonia mundi
Номер по каталогу: HMC 902161
Дата записи: октябрь — ноябрь 2012 г., Берлин.
Аудиокодек: FLAC
Тип рипа: image+.cue
Битрейт аудио: lossless
Продолжительность: 01:11:42
Источник: odeonmusic
Наличие сканов в содержимом раздачи: да
Треклист:
Антон (Антоний) Степанович Аренский (1861 — 1906).
Фортепианное трио № 1 d-moll, op. 32 (1894).
01. I. Allegro moderato [12:00].
02. II. Scherzo. Allegro molto [05:41].
03. III. Elegia. Adagio [05:59].
04. IV. Finale. Allegro non troppo [05:53].
Петр Ильич Чайковский (1840 — 1893).
Фортепианное трио a-moll, op. 50 (1881 — 1882).
I. Pezzo elegiaco.
05. Moderato assai [17:41].
II A. Tema con variazioni.
06. Tema. Andante con moto. — [00:58].
07. — Variazione I. — [00:48].
08. — Variazione II. Più mosso. — [00:32].
09. — Variazione III. Allegro moderato. — [00:51].
10. — Variazione IV. L'istesso tempo. — [01:04].
11. — Variazione V. L'istesso tempo. — [00:38].
12. — Variazione VI. Tempo di valse. — [02:29].
13. — Variazione VII. Allegro moderato. — [01:07].
14. — Variazione VIII. Fuga. Allegro moderato. — [02:17].
15. — Variazione IX. Andante flebile ma non tanto. — [02:58].
16. — Variazione X. Tempo di mazurka. — [01:39].
17. — Variazione XI. Moderato. — [02:07].
II B. Variazione finale e coda.
18. Allegretto risoluto e con fuoco (сокращенная версия). — [06:49].
(19.) — Andante con moto. — Lugubre (L'istesso tempo).
Исполнители:
Trio Wanderer:
Jean-Marc Phillips-Varjabédian (скрипка),
Raphaël Pidoux (виолончель),
Vincent Coq (фортепиано).

Лог создания рипа

Exact Audio Copy V1.0 beta 3 from 29. August 2011
EAC extraction logfile from 21. July 2014, 18:07
Trio Wanderer / Tchaikovsky, Arensky - Piano Trios - Trio Wanderer
Used drive : TSSTcorpCDDVDW SH-222BB Adapter: 2 ID: 1
Read mode : Secure
Utilize accurate stream : Yes
Defeat audio cache : Yes
Make use of C2 pointers : No
Read offset correction : 6
Overread into Lead-In and Lead-Out : No
Fill up missing offset samples with silence : Yes
Delete leading and trailing silent blocks : No
Null samples used in CRC calculations : Yes
Used interface : Native Win32 interface for Win NT & 2000
Used output format : User Defined Encoder
Selected bitrate : 896 kBit/s
Quality : High
Add ID3 tag : No
Command line compressor : C:\Program Files\Exact Audio Copy\FLAC\FLAC.EXE
Additional command line options : -8 -V -T "TITLE=%title%" -T "ARTIST=%artist%" -T "ALBUMARTIST=%albumartist%" -T "ALBUM=%albumtitle%" -T "DATE=%year%" -T "TRACKNUMBER=%tracknr%" -T "TRACKTOTAL=%numtracks%" -T "GENRE=%genre%" -T "COMMENT=%comment%" -T "PERFORMER=%albuminterpret%" -T "COMPOSER=%composer%" %source% -o %dest%
TOC of the extracted CD
Track | Start | Length | Start sector | End sector
---------------------------------------------------------
1 | 0:00.00 | 12:00.11 | 0 | 54010
2 | 12:00.11 | 5:41.69 | 54011 | 79654
3 | 17:42.05 | 5:59.39 | 79655 | 106618
4 | 23:41.44 | 5:53.08 | 106619 | 133101
5 | 29:34.52 | 17:41.47 | 133102 | 212723
6 | 47:16.24 | 0:58.43 | 212724 | 217116
7 | 48:14.67 | 0:48.27 | 217117 | 220743
8 | 49:03.19 | 0:32.30 | 220744 | 223173
9 | 49:35.49 | 0:51.52 | 223174 | 227050
10 | 50:27.26 | 1:04.31 | 227051 | 231881
11 | 51:31.57 | 0:38.56 | 231882 | 234787
12 | 52:10.38 | 2:29.74 | 234788 | 246036
13 | 54:40.37 | 1:07.51 | 246037 | 251112
14 | 55:48.13 | 2:17.43 | 251113 | 261430
15 | 58:05.56 | 2:58.52 | 261431 | 274832
16 | 61:04.33 | 1:39.07 | 274833 | 282264
17 | 62:43.40 | 2:07.40 | 282265 | 291829
18 | 64:51.05 | 6:49.25 | 291830 | 322529
Range status and errors
Selected range
Filename G:\Ripped general\[7935] Tchaikovsky, Arensky – Piano Trios – Trio Wanderer\Tchaikovsky, Arensky - Piano Trios - Trio Wanderer.wav
Peak level 96.7 %
Extraction speed 7.3 X
Range quality 99.9 %
Test CRC 14D2BEDB
Copy CRC 14D2BEDB
Copy OK
No errors occurred
AccurateRip summary
Track 1 accurately ripped (confidence 6) [2BAF14DD] (AR v2)
Track 2 accurately ripped (confidence 6) [CDE07AD8] (AR v2)
Track 3 accurately ripped (confidence 6) [154B796B] (AR v2)
Track 4 accurately ripped (confidence 6) [0DFF7180] (AR v2)
Track 5 accurately ripped (confidence 6) [0D7325CB] (AR v2)
Track 6 accurately ripped (confidence 6) [9E84F440] (AR v2)
Track 7 accurately ripped (confidence 6) [3980B2A9] (AR v2)
Track 8 accurately ripped (confidence 6) [AD05C8B6] (AR v2)
Track 9 accurately ripped (confidence 6) [3C143B22] (AR v2)
Track 10 accurately ripped (confidence 6) [788D38F1] (AR v2)
Track 11 accurately ripped (confidence 6) [9E3ADE0A] (AR v2)
Track 12 accurately ripped (confidence 6) [768E079B] (AR v2)
Track 13 accurately ripped (confidence 6) [03555C85] (AR v2)
Track 14 accurately ripped (confidence 6) [E3A07957] (AR v2)
Track 15 accurately ripped (confidence 6) [9BDC3A45] (AR v2)
Track 16 accurately ripped (confidence 6) [24430ACE] (AR v2)
Track 17 accurately ripped (confidence 6) [8550899B] (AR v2)
Track 18 accurately ripped (confidence 6) [BF00E1D7] (AR v2)
All tracks accurately ripped
End of status report
==== Log checksum 7AAC2857438D8609667A1B672A11548F14EAE9EBBC72919F9A5245F0F9B5A89F ====

Содержание индексной карты (.CUE)

REM GENRE Classical
REM DATE 2013
REM DISCID 2A10CC12
REM COMMENT "ExactAudioCopy v1.0b3"
PERFORMER "Trio Wanderer"
TITLE "Tchaikovsky & Arensky – Piano Trios – Trio Wanderer"
FILE "Tchaikovsky & Arensky – Piano Trios – Trio Wanderer.flac" WAVE
TRACK 01 AUDIO
TITLE "Arensky - Piano Trio No. 1 in D minor, Op. 32 - I. Allegro moderato"
PERFORMER "Trio Wanderer"
ISRC FRZ141225010
INDEX 01 00:00:00
TRACK 02 AUDIO
TITLE "Arensky - Piano Trio No. 1 in D minor, Op. 32 - II. Scherzo. Allegro molto"
PERFORMER "Trio Wanderer"
ISRC FRZ141225020
INDEX 01 12:00:11
TRACK 03 AUDIO
TITLE "Arensky - Piano Trio No. 1 in D minor, Op. 32 - III. Elegia. Adagio"
PERFORMER "Trio Wanderer"
ISRC FRZ141225030
INDEX 01 17:42:05
TRACK 04 AUDIO
TITLE "Arensky - Piano Trio No. 1 in D minor, Op. 32 - IV. Finale. Allegro non troppo"
PERFORMER "Trio Wanderer"
ISRC FRZ141225040
INDEX 01 23:41:44
TRACK 05 AUDIO
TITLE "Tchaikovsky - Piano Trio n A minor, Op. 50 - I. Pezzo elegiaco. Moderato assai"
PERFORMER "Trio Wanderer"
ISRC FRZ141225050
INDEX 01 29:34:52
TRACK 06 AUDIO
TITLE "Tchaikovsky - Piano Trio n A minor, Op. 50 - II A. Tema con variazioni. - Tema -"
PERFORMER "Trio Wanderer"
ISRC FRZ141225060
INDEX 01 47:16:24
TRACK 07 AUDIO
TITLE "Tchaikovsky - Piano Trio n A minor, Op. 50 - Var. I -"
PERFORMER "Trio Wanderer"
ISRC FRZ141225070
INDEX 01 48:14:67
TRACK 08 AUDIO
TITLE "Tchaikovsky - Piano Trio n A minor, Op. 50 - Var. II. Piu mosso -"
PERFORMER "Trio Wanderer"
ISRC FRZ141225080
INDEX 01 49:03:19
TRACK 09 AUDIO
TITLE "Tchaikovsky - Piano Trio n A minor, Op. 50 - Var. III. Allegro moderato -"
PERFORMER "Trio Wanderer"
ISRC FRZ141225090
INDEX 01 49:35:49
TRACK 10 AUDIO
TITLE "Tchaikovsky - Piano Trio n A minor, Op. 50 - Var. IV. L'istesso tempo -"
PERFORMER "Trio Wanderer"
ISRC FRZ141225100
INDEX 01 50:27:26
TRACK 11 AUDIO
TITLE "Tchaikovsky - Piano Trio n A minor, Op. 50 - Var. V. L'istesso tempo -"
PERFORMER "Trio Wanderer"
ISRC FRZ141225110
INDEX 01 51:31:57
TRACK 12 AUDIO
TITLE "Tchaikovsky - Piano Trio n A minor, Op. 50 - Var. VI. Tempo di valse -"
PERFORMER "Trio Wanderer"
ISRC FRZ141225110
INDEX 01 52:10:38
TRACK 13 AUDIO
TITLE "Tchaikovsky - Piano Trio n A minor, Op. 50 - Var. VII. Allegro moderato -"
PERFORMER "Trio Wanderer"
ISRC FRZ141225130
INDEX 01 54:40:37
TRACK 14 AUDIO
TITLE "Tchaikovsky - Piano Trio n A minor, Op. 50 - Var. VIII. Fuga. Allegro moderato -"
PERFORMER "Trio Wanderer"
ISRC FRZ141225140
INDEX 01 55:48:13
TRACK 15 AUDIO
TITLE "Tchaikovsky - Piano Trio n A minor, Op. 50 - Var. IX. Andante flebile ma non tanto -"
PERFORMER "Trio Wanderer"
ISRC FRZ141225150
INDEX 01 58:05:56
TRACK 16 AUDIO
TITLE "Tchaikovsky - Piano Trio n A minor, Op. 50 - Var. X. Tempo di mazurka -"
PERFORMER "Trio Wanderer"
ISRC FRZ141225160
INDEX 01 61:04:33
TRACK 17 AUDIO
TITLE "Tchaikovsky - Piano Trio n A minor, Op. 50 - Var. XI. Moderato -"
PERFORMER "Trio Wanderer"
ISRC FRZ141225170
INDEX 01 62:43:40
TRACK 18 AUDIO
TITLE "Tchaikovsky - Piano Trio n A minor, Op. 50 - II B. Variazione finale e Coda"
PERFORMER "Trio Wanderer"
ISRC FRZ141225180
INDEX 01 64:51:05

Вариант индексной карты (.CUE) с выставленными зазорами и разделением последнего трека на два

REM GENRE Classical
REM DATE 2013
REM DISCID 2A10CC12
REM COMMENT "ExactAudioCopy v1.0b3"
PERFORMER "Trio Wanderer"
TITLE "Tchaikovsky & Arensky – Piano Trios – Trio Wanderer"
FILE "Tchaikovsky & Arensky – Piano Trios – Trio Wanderer.flac" WAVE
TRACK 01 AUDIO
TITLE "Arensky - Piano Trio No. 1 in D minor, Op. 32 - I. Allegro moderato"
PERFORMER "Trio Wanderer"
ISRC FRZ141225010
INDEX 01 00:00:00
TRACK 02 AUDIO
TITLE "Arensky - Piano Trio No. 1 in D minor, Op. 32 - II. Scherzo. Allegro molto"
PERFORMER "Trio Wanderer"
ISRC FRZ141225020
INDEX 01 12:00:11
TRACK 03 AUDIO
TITLE "Arensky - Piano Trio No. 1 in D minor, Op. 32 - III. Elegia. Adagio"
PERFORMER "Trio Wanderer"
ISRC FRZ141225030
INDEX 00 17:40:49
INDEX 01 17:42:05
TRACK 04 AUDIO
TITLE "Arensky - Piano Trio No. 1 in D minor, Op. 32 - IV. Finale. Allegro non troppo"
PERFORMER "Trio Wanderer"
ISRC FRZ141225040
INDEX 01 23:41:44
TRACK 05 AUDIO
TITLE "Tchaikovsky - Piano Trio n A minor, Op. 50 - I. Pezzo elegiaco. Moderato assai"
PERFORMER "Trio Wanderer"
ISRC FRZ141225050
INDEX 00 29:26:70
INDEX 01 29:34:52
TRACK 06 AUDIO
TITLE "Tchaikovsky - Piano Trio n A minor, Op. 50 - II A. Tema con variazioni. - Tema -"
PERFORMER "Trio Wanderer"
ISRC FRZ141225060
INDEX 00 47:14:10
INDEX 01 47:16:24
TRACK 07 AUDIO
TITLE "Tchaikovsky - Piano Trio n A minor, Op. 50 - Var. I -"
PERFORMER "Trio Wanderer"
ISRC FRZ141225070
INDEX 01 48:14:67
TRACK 08 AUDIO
TITLE "Tchaikovsky - Piano Trio n A minor, Op. 50 - Var. II. Piu mosso -"
PERFORMER "Trio Wanderer"
ISRC FRZ141225080
INDEX 01 49:03:19
TRACK 09 AUDIO
TITLE "Tchaikovsky - Piano Trio n A minor, Op. 50 - Var. III. Allegro moderato -"
PERFORMER "Trio Wanderer"
ISRC FRZ141225090
INDEX 01 49:35:49
TRACK 10 AUDIO
TITLE "Tchaikovsky - Piano Trio n A minor, Op. 50 - Var. IV. L'istesso tempo -"
PERFORMER "Trio Wanderer"
ISRC FRZ141225100
INDEX 01 50:27:26
TRACK 11 AUDIO
TITLE "Tchaikovsky - Piano Trio n A minor, Op. 50 - Var. V. L'istesso tempo -"
PERFORMER "Trio Wanderer"
ISRC FRZ141225110
INDEX 01 51:31:62
TRACK 12 AUDIO
TITLE "Tchaikovsky - Piano Trio n A minor, Op. 50 - Var. VI. Tempo di valse -"
PERFORMER "Trio Wanderer"
ISRC FRZ141225110
INDEX 01 52:10:38
TRACK 13 AUDIO
TITLE "Tchaikovsky - Piano Trio n A minor, Op. 50 - Var. VII. Allegro moderato -"
PERFORMER "Trio Wanderer"
ISRC FRZ141225130
INDEX 01 54:40:37
TRACK 14 AUDIO
TITLE "Tchaikovsky - Piano Trio n A minor, Op. 50 - Var. VIII. Fuga. Allegro moderato -"
PERFORMER "Trio Wanderer"
ISRC FRZ141225140
INDEX 01 55:48:13
TRACK 15 AUDIO
TITLE "Tchaikovsky - Piano Trio n A minor, Op. 50 - Var. IX. Andante flebile ma non tanto -"
PERFORMER "Trio Wanderer"
ISRC FRZ141225150
INDEX 01 58:05:56
TRACK 16 AUDIO
TITLE "Tchaikovsky - Piano Trio n A minor, Op. 50 - Var. X. Tempo di mazurka -"
PERFORMER "Trio Wanderer"
ISRC FRZ141225160
INDEX 01 61:04:33
TRACK 17 AUDIO
TITLE "Tchaikovsky - Piano Trio n A minor, Op. 50 - Var. XI. Moderato -"
PERFORMER "Trio Wanderer"
ISRC FRZ141225170
INDEX 01 62:43:65
TRACK 18 AUDIO
TITLE "Tchaikovsky - Piano Trio n A minor, Op. 50 - II B. Variazione finale -"
PERFORMER "Trio Wanderer"
ISRC FRZ141225180
INDEX 01 64:51:05
TRACK 19 AUDIO
TITLE "Tchaikovsky - Piano Trio n A minor, Op. 50 - Coda"
PERFORMER "Trio Wanderer"
INDEX 01 67:58:14
INDEX 02 71:37:17



Показать сообщения:    

Текущее время: 08-Дек 01:18

Часовой пояс: UTC + 3


Вы не можете начинать темы
Вы не можете отвечать на сообщения
Вы не можете редактировать свои сообщения
Вы не можете удалять свои сообщения
Вы не можете голосовать в опросах
Вы не можете прикреплять файлы к сообщениям
Вы не можете скачивать файлы