(Classical/ Opera) [LP] [24/192] Placido Domingo, Carlo Maria Giulini, Los Angeles Philharmonic Orchestra - Opern-Gala(1981), FLAC (image+.cue)


Статистика раздачи [Обновить пиров]
Размер:  1.71 GB   |    Зарегистрирован:  8 месяцев 16 дней   |    Скачан:  0 раз

Полного источника не было: Никогда

Личеров:  9  [  0 KB/s  ]   Подробная статистика пиров
 
   
 
 
 

[Цитировать]

Placido Domingo, Carlo Maria Giulini, Los Angeles Philharmonic OrchestraOpern-Gala(Donizetti, Verdi, Halevy, Meyerbeer, Bizet)
Жанр: Classical, Opera
Год выпуска: 1981
Лейбл: Deutsche Grammophon - 2532 009
Страна-производитель: Germany
Аудио кодек: FLAC
Тип рипа: image+.cue
Формат записи: 24/192
Формат раздачи: 24/192
Продолжительность: 01:04:15
Chorus - Roger Wagner Chorale (tracks: АЗ, A5)
Chorus Master- Roger Wagner (tracks: АЗ, A5)
Conductor - Carlo Maria Giulini
Engineer - Hans-Peter Schweigmann
Orchestra - Los Angeles Philharmonic Orchestra
Tenor Vocals - Placido Domingo
Треклист:
L’Elisir D’Amore (Gaetano Donizetti)
A1 Una Furtiva Lagrima (Nemoria)
A2 Tombe Degl'Avi Miei... Fra Poco A Me Ricovero (Edgaro)
Ernani (Giuseppe Verdi)
A3 Merce, Diletti Amici... Come Rugiada Al Cespite... O Tu Che L'Ama Adora (Ernani, Chorus)
II Trovatore (Giuseppe Verdi)
A4 Ah Si, Ben Mio... Di Quella Pira (Manrico, Chorus)
A5 Di Quella Pira (Manrico, Chorus)
Aida (Giuseppe Verdi)
B1 Se Quel Guerrier lo Fossil... Celeste Aida (Radames)
La Juive (Jacques Halevy)
B2 Rachel, Quand Du Seigneur (Eleazar)
L’Africaine (Giacomo Meyerbeer)
B3 Pays Merveilleux... O Paradis (Vasco)
Les Pecheurs De Perles (Georges Bizet)
B4 Je Crois Entendre Encore (Nadir)
Carmen (Georges Bizet)
B5 La Fleur Que Tu M'Avais Jetee (Jose)
Digital Recording
Даже если вы не поклонник оперы, эту запись стоит услышать хотя бы раз на хорошей аппаратуре. И если вам предложат пойти в оперу, куда вы категорически не ходите, то можно будет отказаться железно-аргументированно, сказав например: это разве опера, вот помню слушал я живьем Доминго с оркестром п/у Карло Мария Джулини ... И это будет правда, почти.

About

"Placido Domingo, "the greatest operatic artist of modern times" (The Guardian), recorded this selection of beloved French and Italian arias in 1980 with Carlo Giulini, the aristocrat of modern conductors and one of the singer's preferred collaborators. Domingo rhapsodized about the Los Angeles recording sessions: "It is fabulous when one really establishes contact with the conductor and the orchestra right away. This happened here."

Technical details

Источник оцифровки: оцифровано Crimson74
Код класса состояния винила: Good
Устройство воспроизведения: Technics SP-10 MK2
Головка звукоснимателя: Audio Technica ML180
Предварительный усилитель: Kora 3T SE MM
АЦП: Edirol R-44
Обработка: с обработкой

DR

foobar2000 1.1.8 / Dynamic Range Meter 1.1.1
log date: 2014-08-02 11:24:12
--------------------------------------------------------------------------------
Analyzed: Placido Domingo, Carlo Maria Giulini, Los Angeles Philharmonic Orchestra / Opern-Gala
--------------------------------------------------------------------------------
DR Peak RMS Duration Track
--------------------------------------------------------------------------------
DR13 -8.73 dB -26.64 dB 4:43 01-Una Furtiva Lagrima (Nemoria) - L’Elisir D’Amore
DR14 -4.01 dB -23.71 dB 7:20 02-Tombe Degl'Avi Miei... Fra Poco A Me Ricovero (Edgaro) - L’Elisir D’Amore
DR14 -2.37 dB -22.21 dB 5:36 03-Merce, Diletti Amici... Come Rugiada Al Cespite... O Tu Che L'Ama Adora (Emani, Chorus) - Ernani
DR12 -3.99 dB -21.75 dB 3:24 04-Ah Si, Ben Mio... Di Quella Pira (Manrico, Chorus) - II Trovatore
DR12 -3.38 dB -18.52 dB 2:19 05-Di Quella Pira (Manrico, Chorus) - II trovatore
DR13 -2.02 dB -23.07 dB 5:03 06-Se Quel Guerrier lo Fossil... Celeste Aida (Radames) - Aida
DR16 -1.91 dB -25.02 dB 5:41 07-Rachel, Quand Du Seigneur (Eleazar) - La Juive
DR13 -4.45 dB -23.75 dB 3:38 08-Pays Merveilleux... 0 Paradis (Vasco) - L’Africaine
DR13 -8.28 dB -26.06 dB 3:46 09-Je Crois Entendre Encore (Nadir) - Les Pecheurs De Perles
DR13 -7.47 dB -25.71 dB 4:16 10-La Fleur Que Tu M'Avais Jetee (Jose) - Carmen
--------------------------------------------------------------------------------
Number of tracks: 10
Official DR value: DR13
Samplerate: 192000 Hz
Channels: 2
Bits per sample: 24
Bitrate: 4791 kbps
Codec: FLAC
================================================================================

По поводу кода состояния винила и обработки - чтобы не писать одно тоже, хотя конечно это вряд ли поможет. Приходится писать - и уже больше полгода.

Поскольку мы ни чем не торгуем, а вы ничего не покупаете, то категория Good, вовсе не значит G (г... в терминах рынка). Кстати, на рынке вы вряд ли получите возможность послушать сэмпл. Здесь такая возможность есть. Как правило, в сэмпле самые критичные места - конец последнего трека и начало первого. Это честный сэмпл, а не то что на заборе написано.
Количество скачиваний на наши планы никак не влияет, а рекламой мы не занимается. И как показывает практика, на код состояния винила никто не смотрит, Ол Ди Меола скачан почти тысячу раз - состояние винила - Good.
Good в нашем понимании - рекомендуется взять сэмпл, самому определиться с классом состояния винила, разумеется не с тем что был изначально - а тем что получилось после многоразовой мойки, потрековой записью с промежуточной чисткой, сборки и т.д. - и в итого решить стоит ли качать или нет. Мы по возможности оставляем все артефакты, которые нам не мешают, кроме того всегда есть возможность убрать их самим.
По конкретно этому винилу.
Все имеющиеся на этом виниле артефакты мы оставили на месте. И еще. На виниле присутствуют помехи, например на 35 кГц с уровнем минус 105 диби, а также наводка, которую можно при желании услышать по левому каналу, но спектрограмма ее не фиксирует. К тракту это не имеет никакого отношения.

Спектр

АЧХ

Уровень



Большое спасибо Vinyl House'у за оформление раздачи.
[teatrix.ru].t18970.torrent 
Торрент: Зарегистрирован [ 2016-03-18 12:22 ] · BFC5A8C0A8680E4247168F0B2AA7E84DFB07598D

Скачать .torrent

Скачать

18 KB

Статус: проверено
Скачан: 0 раз
Размер: 1.71 GB
terms.php



Быстрый ответ

Имя:

      
Для отправки сообщений необходимо включить JavaScript
Показать сообщения:    

Текущее время: 04-Дек 06:51

Часовой пояс: UTC + 3


Вы можете начинать темы
Вы можете отвечать на сообщения
Вы не можете редактировать свои сообщения
Вы не можете удалять свои сообщения
Вы не можете голосовать в опросах
Вы не можете прикреплять файлы к сообщениям
Вы можете скачивать файлы